Важное объявление!
У Нас Все раздачи мультитрекерные, при нуле пиров в релизах, можете смело вставать на закачку!
 
Автор Сообщение

HUNTER

Стаж:
4 года 4 месяца
Сообщений:
56829

Репутация: 101

[+] [-]
Вне форума [Профиль] [ЛС]

-Университет монстров / Monsters University-
Страна: США
Жанр: фэнтези, комедия, приключения, семейный
Продолжительность: 01:44:17
Год выпуска: 2013
Перевод: Профессиональный (дублированный)
Субтитры: русские, английские-Режиссёр: Дэн Скэнлон / Dan Scanlon
Роли озвучивали: Джон Гудман, Билли Кристал, Стив Бушеми, Хелен Миррен, Питер Сон, Джоэль Мюррей, Шон Хейс, Дэйв Фоли, Чарли Дэй, Альфред Молина.
Описание: Большой волосатый монстр Салли и маленький одноглазый Майк Возовски — лучшие друзья, которые уже много лет работают в паре в Корпорации монстров, где стали лучшими работниками. Казалось, что эти двое дружат с самого детства, но на самом деле это не так. Когда Майк был еще маленьким мальчиком, его настолько впечатлила работа монстров в Страшильном цехе, что он поставил себе цель — стать одним из таких монстров. После окончания школы он поступил в университет на факультет Страха. Именно здесь он и познакомился с Салли. Но отношения между ними не заладились, и между ними началась настоящая борьба за звание лучшего страшилы.-Качество: BDRip (источник: Blu-ray EUR / 1080p)
Формат: AVI | Sample
Видео: 720x400 (1.80:1), 23,976 fps, XviD build 65 ~2091 kbps avg, 0.30 bit/pixel
Аудио 1: 48 kHz, AC3 Dolby Digital, 3/2 (L,C,R,l,r) + LFE ch, ~448.00 kbps avg | BD EUR
Аудио 2: 48 kHz, AC3 Dolby Digital, 3/2 (L,C,R,l,r) + LFE ch, ~448.00 kbps avg | Original

СкриншотыМедиаинфо
ОбщееФормат : AVIФормат/Информация : Audio Video InterleaveПрофиль формата : OpenDMLРазмер файла : 2,18 ГбайтПродолжительность : 1 ч. 44 м.Общий поток : 2994 Кбит/секНазвание фильма : Университет монстров / Monsters University (2013) BDRipРежиссёр : kingsize87Программа кодирования : VirtualDubMod 1.5.10.2 (build 2540/release)Правообладатель : HQCLUBПримечание : 02.11.2013
ВидеоИдентификатор : 0Формат : MPEG-4 VisualПрофиль формата : Advanced Simple@L5Параметр BVOP формата : 1Параметр QPel формата : НетПараметр GMC формата : Без точки переходаПараметр матрицы формата : ВыборочнаяИдентификатор кодека : XVIDИдентификатор кодека/Подсказка : XviDПродолжительность : 1 ч. 44 м.Битрейт : 2080 Кбит/секШирина : 720 пикселейВысота : 400 пикселейСоотношение сторон : 16:9Частота кадров : 23,976 кадра/секЦветовое пространство : YUVСубдискретизация насыщенности : 4:2:0Битовая глубина : 8 битТип развёртки : ПрогрессивнаяМетод сжатия : С потерямиБит/(Пиксели*Кадры) : 0.301Размер потока : 1,52 Гбайт (69%)Библиотека кодирования : XviD 65
Аудио #1Идентификатор : 1Формат : AC-3Формат/Информация : Audio Coding 3Расширение режима : CM (complete main)Параметр Endianness формата : BigИдентификатор кодека : 2000Продолжительность : 1 ч. 44 м.Вид битрейта : ПостоянныйБитрейт : 448 Кбит/секКаналы : 6 каналовРасположение каналов : Front: L C R, Side: L R, LFEЧастота : 48,0 КГцБитовая глубина : 16 битМетод сжатия : С потерямиРазмер потока : 334 Мбайт (15%)Выравнивание : Разделение по промежуткамПродолжительность промежутка : 42 мс. (1,00 видеокадр)Время предзагрузки промежутка : 500 мс.
Аудио #2Идентификатор : 2Формат : AC-3Формат/Информация : Audio Coding 3Расширение режима : CM (complete main)Параметр Endianness формата : BigИдентификатор кодека : 2000Продолжительность : 1 ч. 44 м.Вид битрейта : ПостоянныйБитрейт : 448 Кбит/секКаналы : 6 каналовРасположение каналов : Front: L C R, Side: L R, LFEЧастота : 48,0 КГцБитовая глубина : 16 битМетод сжатия : С потерямиРазмер потока : 334 Мбайт (15%)Выравнивание : Разделение по промежуткамПродолжительность промежутка : 42 мс. (1,00 видеокадр)Время предзагрузки промежутка : 500 мс.
Дополнительно
Релиз HQCLUB
Рип kingsize87

_________________
Показать сообщения:    

Текущее время: Сегодня 19:08

Часовой пояс: GMT



Вы не можете начинать темы
Вы не можете отвечать на сообщения
Вы не можете редактировать свои сообщения
Вы не можете удалять свои сообщения
Вы не можете голосовать в опросах
Вы не можете прикреплять файлы к сообщениям
Вы не можете скачивать файлы