Важное объявление!
У Нас Все раздачи мультитрекерные, при нуле пиров в релизах, можете смело вставать на закачку!
 
Автор Сообщение

HUNTER

Стаж:
4 года 4 месяца
Сообщений:
56839

Репутация: 101

[+] [-]
Вне форума [Профиль] [ЛС]

Унесенные / Swept Away
Страна: Великобритания, Италия
Жанр: мелодрама, комедия
Год выпуска: 2002
Продолжительность: 01:29:25
Перевод 1: Профессиональный (двухголосый закадровый) Александр Клюквин, Елена Борзунова
Перевод 2: Профессиональный (многоголосый закадровый) Юрий Меншагин, Станислав Стрелков, Нина Лунёва
Cубтитры: русские, английские, английские на итальянскую речь.
Оригинальная аудиодорожка: английский
Режиссер: Гай Ричи / Guy Ritchie
В ролях: Брюс Гринвуд, Мадонна, Элизабет Бэнкс, Майкл Битти, Джинн Трипплхорн, Дэвид Торнтон, Йорго Воягис, Рикардо Перна, Адриано Джаннини, Джордж Ясуми...
Описание: Если Робинзон и Пятница жили на необитаемом острове душа в душу, то богатой дамочке Эмбер Лейтон и простому матросу Джузеппе повезло меньше. Еще на борту яхты стервозная Эмбер и одержимый революционными идеями Джузеппе не раз вступали в перепалки, питая друг к другу искреннюю ненависть. А когда волею драматических обстоятельств эту парочку забросило на пустынный остров без надежды на возвращение к цивилизации — пиши пропало!
Но с дикой природой шутки плохи. Волей-неволей придется героям как-то ужиться. Иначе смерть. Только вот какая штука: начав притираться друг к другу, Джузеппе с Эмбер и не заметили, как уж очень увлеклись этим интересным процессом…
Сэмпл: http://multi-up.com/1030104
Тип релиза: WEB-DL 1080p
Контейнер: MKV
Видео: 1916x1072 (16:9), 23.976 fps, AVC, ~5006 Kbps, 0.102 bits/pixel
Аудио 1: Russian, 48.0 KHz, AC3, 6 ch, 448 Kbps
Аудио 2: Russian, 48.0 KHz, AC3, 6 ch, 448 Kbps
Аудио 3: English, 48.0 KHz, AC3, 6 ch, 448 Kbps

MediaInfo

General
Unique ID : 209826580607495661403755935496206986969 (0x9DDB2125144F7FBD9AC0DCFDE112AED9)
Complete name : C:\Swept Away.mkv
Format : Matroska
Format version : Version 4 / Version 2
File size : 4.05 GiB
Duration : 1h 29mn
Overall bit rate : 6 479 Kbps
Encoded date : UTC 2015-01-30 15:45:50
Writing application : mkvmerge v7.5.0 ('Glass Culture') 64bit built on Jan 4 2015 16:48:44
Writing library : libebml v1.3.1 + libmatroska v1.4.2
DURATION : 01:29:25.312000000
NUMBER_OF_FRAMES : 167666
NUMBER_OF_BYTES : 300457472
_STATISTICS_WRITING_APP : mkvmerge v7.5.0 ('Glass Culture') 64bit built on Jan 4 2015 16:48:44
_STATISTICS_WRITING_DATE_UT : 2015-01-30 15:45:50
_STATISTICS_TAGS : BPS DURATION NUMBER_OF_FRAMES NUMBER_OF_BYTES
Video
ID : 1
Format : AVC
Format/Info : Advanced Video Codec
Format profile : High@L4.0
Format settings, CABAC : Yes
Format settings, ReFrames : 4 frames
Codec ID : V_MPEG4/ISO/AVC
Duration : 1h 29mn
Bit rate : 5 006 Kbps
Width : 1 916 pixels
Height : 1 072 pixels
Display aspect ratio : 16:9
Frame rate mode : Constant
Frame rate : 23.976 fps
Color space : YUV
Chroma subsampling : 4:2:0
Bit depth : 8 bits
Scan type : Progressive
Bits/(Pixel*Frame) : 0.102
Stream size : 3.13 GiB (77%)
Language : English
Default : Yes
Forced : No
Color primaries : BT.709
Transfer characteristics : BT.709
Matrix coefficients : BT.709
Color range : Limited
Audio #1
ID : 2
Format : AC-3
Format/Info : Audio Coding 3
Mode extension : CM (complete main)
Format settings, Endianness : Big
Codec ID : A_AC3
Duration : 1h 29mn
Bit rate mode : Constant
Bit rate : 448 Kbps
Channel(s) : 6 channels
Channel positions : Front: L C R, Side: L R, LFE
Sampling rate : 48.0 KHz
Bit depth : 16 bits
Compression mode : Lossy
Stream size : 287 MiB (7%)
Language : Russian
Default : Yes
Forced : No
Audio #2
ID : 3
Format : AC-3
Format/Info : Audio Coding 3
Mode extension : CM (complete main)
Format settings, Endianness : Big
Codec ID : A_AC3
Duration : 1h 29mn
Bit rate mode : Constant
Bit rate : 448 Kbps
Channel(s) : 6 channels
Channel positions : Front: L C R, Side: L R, LFE
Sampling rate : 48.0 KHz
Bit depth : 16 bits
Compression mode : Lossy
Stream size : 287 MiB (7%)
Language : Russian
Default : No
Forced : No
Audio #3
ID : 4
Format : AC-3
Format/Info : Audio Coding 3
Mode extension : CM (complete main)
Format settings, Endianness : Big
Codec ID : A_AC3
Duration : 1h 29mn
Bit rate mode : Constant
Bit rate : 448 Kbps
Channel(s) : 6 channels
Channel positions : Front: L C R, Side: L R, LFE
Sampling rate : 48.0 KHz
Bit depth : 16 bits
Compression mode : Lossy
Stream size : 287 MiB (7%)
Language : English
Default : No
Forced : No
Text #1
ID : 5
Format : UTF-8
Codec ID : S_TEXT/UTF8
Codec ID/Info : UTF-8 Plain Text
Language : Russian
Default : No
Forced : No
Text #2
ID : 6
Format : UTF-8
Codec ID : S_TEXT/UTF8
Codec ID/Info : UTF-8 Plain Text
Language : English
Default : No
Forced : No
Text #3
ID : 7
Format : UTF-8
Codec ID : S_TEXT/UTF8
Codec ID/Info : UTF-8 Plain Text
Language : English
Default : No
Forced : No

Скриншоты


_________________
Показать сообщения:    

Текущее время: Сегодня 05:20

Часовой пояс: GMT



Вы не можете начинать темы
Вы не можете отвечать на сообщения
Вы не можете редактировать свои сообщения
Вы не можете удалять свои сообщения
Вы не можете голосовать в опросах
Вы не можете прикреплять файлы к сообщениям
Вы не можете скачивать файлы