Важное объявление!
У Нас Все раздачи мультитрекерные, при нуле пиров в релизах, можете смело вставать на закачку!
 
Автор Сообщение

HUNTER

Стаж:
4 года 4 месяца
Сообщений:
56798

Репутация: 101

[+] [-]
Вне форума [Профиль] [ЛС]

-Ужастики / Goosebumps
«The stories are alive»-
-Страна: США, Австралия
Жанр: Приключения, Фэнтези, Комедия
Год выпуска: 2015
Продолжительность: 01:43:16-Перевод: Профессиональный (дублированный) iTunes-Cубтитры: Русские, Английские
Оригинальная аудиодорожка: Английская-Режиссер: Роб Леттерман / Rob Letterman-В ролях: Дилан Миннетт, Одейя Раш, Эми Райан, Райан Ли, Джиллиан Белл, Джек Блэк, Кен Марино, Холстон Сейдж, Стивен Крюгер, Кит А. Болден, Аманда Ланд, Тимоти С. Саймонс, Каран Сони, Р.Л. Стайн, Калеб Эмери, Габриэла Фрайле, Нэйт Андраде, Шелдон Браун, Мелисса Брюэр, Маршалл Чока-Описание: Зак переезжает с родителями в провинциальный городок, где знакомится с очаровательной соседкой Ханной. Он узнает, что ее отец — Роберт Стайн, знаменитый писатель, автор популярной серии триллеров для подростков «Ужастики», у которого есть мрачная тайна. Стайн — пленник собственных историй: монстры из его произведений вполне реальны, и он пишет свои книги для того, чтобы запереть чудовищ на их страницах, защищая своих читателей. По случайному стечению обстоятельств Зак выпускает монстров на волю…- -
Тип релиза: BDRip 1080p
Контейнер: MKV-Видео: MPEG-4 AVC, 1920x800 (2.40:1), 23.976 fps, ~8500 kbps avg, 0.230 bit/pixel
Аудио 1: 48 kHz, AC3 Dolby Digital, 3/2 (L,C,R,l,r) + LFE ch, ~384 kbps avg
Аудио 2: 48 kHz, DTS, 3/2 (L,C,R,l,r) + LFE ch, ~1509 kbps avg-

MediaInfo

Complete name : E:\РАЗДАЧИ\Goosebumps (2015) BDRip 1080p.mkv
Format : Matroska
Format version : Version 2
File size : 7.47 GiB
Duration : 1h 43mn
Overall bit rate : 10.4 Mbps
Movie name : Goosebumps (2015) BDRip 1080p
Encoded date : UTC 2016-01-18 22:03:44
Writing application : mkvmerge v3.0.0 ('Hang up your Hang-Ups') built on Dec 12 2009 15:20:35
Writing library : libebml v0.7.9 + libmatroska v0.8.1
Cover : Yes
Video
ID : 1
Format : AVC
Format/Info : Advanced Video Codec
Format profile : High@L4.1
Format settings, CABAC : Yes
Format settings, ReFrames : 4 frames
Codec ID : V_MPEG4/ISO/AVC
Duration : 1h 43mn
Bit rate : 8 467 Kbps
Width : 1 920 pixels
Height : 800 pixels
Display aspect ratio : 2.40:1
Frame rate mode : Constant
Frame rate : 23.976 fps
Color space : YUV
Chroma subsampling : 4:2:0
Bit depth : 8 bits
Scan type : Progressive
Bits/(Pixel*Frame) : 0.230
Stream size : 5.96 GiB (80%)
Title : Ужастики_Goosebumps.2015.BDRip.1080p
Writing library : x264 core 148 r2638 7599210
Encoding settings : cabac=1 / ref=4 / deblock=1:-3:-3 / analyse=0x3:0x133 / me=umh / subme=10 / psy=1 / psy_rd=1.00:0.15 / mixed_ref=1 / me_range=24 / chroma_me=1 / trellis=2 / 8x8dct=1 / cqm=0 / deadzone=21,11 / fast_pskip=0 / chroma_qp_offset=-3 / threads=12 / lookahead_threads=2 / sliced_threads=0 / nr=0 / decimate=1 / interlaced=0 / bluray_compat=0 / constrained_intra=0 / bframes=8 / b_pyramid=2 / b_adapt=2 / b_bias=0 / direct=3 / weightb=1 / open_gop=0 / weightp=2 / keyint=250 / keyint_min=23 / scenecut=40 / intra_refresh=0 / rc_lookahead=40 / rc=2pass / mbtree=1 / bitrate=8467 / ratetol=1.0 / qcomp=0.60 / qpmin=0 / qpmax=69 / qpstep=4 / cplxblur=20.0 / qblur=0.5 / vbv_maxrate=50000 / vbv_bufsize=62500 / nal_hrd=none / filler=0 / ip_ratio=1.40 / aq=1:0.70
Language : English
Default : No
Forced : No
Audio #1
ID : 2
Format : AC-3
Format/Info : Audio Coding 3
Mode extension : CM (complete main)
Format settings, Endianness : Big
Codec ID : A_AC3
Duration : 1h 43mn
Bit rate mode : Constant
Bit rate : 384 Kbps
Channel(s) : 6 channels
Channel positions : Front: L C R, Side: L R, LFE
Sampling rate : 48.0 KHz
Bit depth : 16 bits
Compression mode : Lossy
Stream size : 284 MiB (4%)
Title : iTunes
Language : Russian
Default : No
Forced : No
Audio #2
ID : 3
Format : DTS
Format/Info : Digital Theater Systems
Mode : 16
Format settings, Endianness : Big
Codec ID : A_DTS
Duration : 1h 43mn
Bit rate mode : Constant
Bit rate : 1 509 Kbps
Channel(s) : 6 channels
Channel positions : Front: L C R, Side: L R, LFE
Sampling rate : 48.0 KHz
Bit depth : 16 bits
Compression mode : Lossy
Stream size : 1.09 GiB (15%)
Title : Original
Language : English
Default : Yes
Forced : No
Text #1
ID : 4
Format : UTF-8
Codec ID : S_TEXT/UTF8
Codec ID/Info : UTF-8 Plain Text
Title : Russian
Language : Russian
Default : No
Forced : No
Text #2
ID : 5
Format : UTF-8
Codec ID : S_TEXT/UTF8
Codec ID/Info : UTF-8 Plain Text
Title : English
Language : English
Default : No
Forced : No
Menu
00:00:00.000 : en:Chapter 01
00:08:09.697 : en:Chapter 02
00:11:45.955 : en:Chapter 03
00:17:54.031 : en:Chapter 04
00:21:52.853 : en:Chapter 05
00:27:57.842 : en:Chapter 06
00:32:40.291 : en:Chapter 07
00:38:29.849 : en:Chapter 08
00:44:37.007 : en:Chapter 09
00:52:01.451 : en:Chapter 10
00:58:12.947 : en:Chapter 11
01:03:40.608 : en:Chapter 12
01:09:56.317 : en:Chapter 13
01:16:40.762 : en:Chapter 14
01:22:55.220 : en:Chapter 15
01:31:13.092 : en:Chapter 16

Скриншоты


_________________
Показать сообщения:    

Текущее время: Сегодня 03:31

Часовой пояс: GMT



Вы не можете начинать темы
Вы не можете отвечать на сообщения
Вы не можете редактировать свои сообщения
Вы не можете удалять свои сообщения
Вы не можете голосовать в опросах
Вы не можете прикреплять файлы к сообщениям
Вы не можете скачивать файлы