Важное объявление!
У Нас Все раздачи мультитрекерные, при нуле пиров в релизах, можете смело вставать на закачку!
 
Автор Сообщение

HUNTER

Стаж:
4 года 4 месяца
Сообщений:
56829

Репутация: 101

[+] [-]
Вне форума [Профиль] [ЛС]

Удар по воротамSlap Shot«Slap Shot out slaps... out swears... out laughs...»-
Страна: США
Жанр: драма, комедия, спорт
Год выпуска: 1977
Продолжительность: 02:03:03-Перевод: Профессиональный (двухголосый закадровый)
Субтитры: русские, английские
Режиссер: Джордж Рой Хилл / George Roy Hill
В ролях: Пол Ньюман, Строзер Мартин, Майкл Онткин, Дженнифер Уоррен, Линдси Краузе, Джерри Хаузер, Эндрю Данкан, Джефф Карлсон, Стив Карлсон, Дэвид Хэнсон, М. Эммет Уолш, Свузи Кертц, Пол Дули-Описание: Cедовласый Реджи Данлоп, - тренер и капитан второразрядной хоккейной команды. Времена побед остались позади, поражение следует за поражением, и команда Реджи гордо занимает последнее место в самой низшей лиге.
Чтобы реанимировать интерес болельщиков, в команду берут братьев Хэнсон: трёх заторможенных отморозков, предпочитающих играть в «жёсткий» хоккей. «Жесткий» хоккей братьев Хэнсон подразумевает безжалостную физическую расправу над соперником.
«Боевой задор» братьев-варваров с удовольствием подхватывает хитрый ветеран Реджи, постепенно превращающий свою горе-команду в банду свирепых драчунов и неуправляемых хулиганов!-
MPAA: R - Лицам до 17 лет обязательно присутствие взрослого-Качество: BDRip (SbR)
Контейнер: MKV
Видео: 1920x1040, 21511 kbps, 23,976 fps
Аудио №1: русский / AC3 / 2.0 / 48 kHz / 192 kbps |Двухголосый|
Аудио №2: английский / FLAC / 2.0 / 48 kHz / 738 kbps / 24 bit
Аудио №3: английский / AC3 / 2.0 / 48 kHz / 192 kbps |Commentary|
Субтитры: русские, английские-

Скриншоты





Media Info

General
Unique ID : 236975088165598048313287224204943643738 (0xB247BDE90AD32209B253E45987D3545A)
Complete name : D:\Slap.Shot.1977.1080p.BluRay.Rus.Eng-SbR.mkv
Format : Matroska
Format version : Version 4 / Version 2
File size : 19.5 GiB
Duration : 2h 3mn
Overall bit rate mode : Variable
Overall bit rate : 22.6 Mbps
Movie name : Slap Shot (1977) - Release by SbR
Encoded date : UTC 2015-06-14 10:54:06
Writing application : mkvmerge v7.9.0 ('Birds') 64bit
Writing library : libebml v1.3.1 + libmatroska v1.4.2
Attachment : Yes / Yes
Video
ID : 1
Format : AVC
Format/Info : Advanced Video Codec
Format profile : High@L4.1
Format settings, CABAC : Yes
Format settings, ReFrames : 4 frames
Codec ID : V_MPEG4/ISO/AVC
Duration : 2h 3mn
Width : 1 920 pixels
Height : 1 040 pixels
Display aspect ratio : 16:9
Frame rate : 23.976 fps
Color space : YUV
Chroma subsampling : 4:2:0
Bit depth : 8 bits
Scan type : Progressive
Writing library : x264 core 146 r2538kMod 121396c
Encoding settings : cabac=1 / ref=4 / deblock=1:-2:-2 / analyse=0x3:0x133 / me=umh / subme=11 / psy=1 / fade_compensate=0.00 / psy_rd=1.00:0.00 / mixed_ref=1 / me_range=32 / chroma_me=1 / trellis=2 / 8x8dct=1 / cqm=0 / deadzone=21,11 / fast_pskip=1 / chroma_qp_offset=-2 / threads=12 / lookahead_threads=2 / sliced_threads=0 / nr=0 / decimate=1 / interlaced=0 / bluray_compat=0 / constrained_intra=0 / fgo=0 / bframes=8 / b_pyramid=2 / b_adapt=2 / b_bias=0 / direct=1 / weightb=1 / open_gop=0 / weightp=2 / keyint=250 / keyint_min=23 / scenecut=40 / intra_refresh=0 / rc_lookahead=60 / rc=crf / mbtree=0 / crf=18.0000 / qcomp=0.70 / qpmin=0 / qpmax=69 / qpstep=4 / vbv_maxrate=62500 / vbv_bufsize=78125 / crf_max=0.0 / nal_hrd=none / filler=0 / ip_ratio=1.40 / pb_ratio=1.30 / aq=1:0.80
Language : English
Default : Yes
Forced : No
Color primaries : BT.709-5, BT.1361, IEC 61966-2-4, SMPTE RP177
Transfer characteristics : BT.709-5, BT.1361
Matrix coefficients : BT.709-5, BT.1361, IEC 61966-2-4 709, SMPTE RP177
Audio #1
ID : 2
Format : AC-3
Format/Info : Audio Coding 3
Mode extension : CM (complete main)
Codec ID : A_AC3
Duration : 2h 3mn
Bit rate mode : Constant
Bit rate : 192 Kbps
Channel(s) : 2 channels
Channel positions : Front: L R
Sampling rate : 48.0 KHz
Bit depth : 16 bits
Compression mode : Lossy
Stream size : 169 MiB (1%)
Title : DVO
Language : Russian
Default : Yes
Forced : No
Audio #2
ID : 3
Format : FLAC
Format/Info : Free Lossless Audio Codec
Codec ID : A_FLAC
Duration : 2h 3mn
Bit rate mode : Variable
Channel(s) : 2 channels
Sampling rate : 48.0 KHz
Bit depth : 24 bits
Writing library : libFLAC 1.2.1 (UTC 2007-09-17)
Language : English
Default : No
Forced : No
Audio #3
ID : 4
Format : AC-3
Format/Info : Audio Coding 3
Format profile : Dolby Digital
Mode extension : CM (complete main)
Codec ID : A_AC3
Duration : 2h 3mn
Bit rate mode : Constant
Bit rate : 192 Kbps
Channel(s) : 2 channels
Channel positions : Front: L R
Sampling rate : 48.0 KHz
Bit depth : 16 bits
Compression mode : Lossy
Stream size : 169 MiB (1%)
Title : Commentary
Language : English
Default : No
Forced : No
Text #1
ID : 5
Format : UTF-8
Codec ID : S_TEXT/UTF8
Codec ID/Info : UTF-8 Plain Text
Language : Russian
Default : No
Forced : No
Text #2
ID : 6
Format : UTF-8
Codec ID : S_TEXT/UTF8
Codec ID/Info : UTF-8 Plain Text
Language : English
Default : No
Forced : No
Menu
00:00:00.000 : en:Hockey Pointers
00:02:50.003 : en:Main Titles
00:07:34.787 : en:The Fashion Show
00:12:17.695 : en:The New Players
00:19:30.544 : en:On The Road
00:26:25.959 : en:Gears vs. Chiefs
00:35:24.372 : en:Winning
00:43:48.083 : en:A New Attitude
00:53:55.190 : en:Back on the Bus
01:01:39.445 : en:The Presidents
01:12:00.566 : en:Free Tickets
01:17:51.958 : en:The Interview
01:23:48.857 : en:A Bounty
01:32:31.254 : en:Reggie vs. Owner
01:43:25.157 : en:The Big Game
01:49:44.244 : en:A Show for the Scouts
01:57:51.981 : en:A Victory Parade
02:00:04.488 : en:End Credits

xlog

raw [info]: 1920x1040p 1:1 @ 24000/1001 fps (cfr)
x264 [info]: using SAR=1/1
x264 [info]: using cpu capabilities: MMX2 SSE2Fast SSSE3 SSE4.2 AVX
x264 [info]: profile High, level 4.1
x264 [info]: frame I:1131 Avg QP:17.68 size:208743
x264 [info]: frame P:32078 Avg QP:18.64 size:155049
x264 [info]: frame B:143806 Avg QP:20.70 size:101822
x264 [info]: consecutive B-frames: 1.1% 0.8% 2.9% 13.1% 12.8% 40.3% 13.5% 8.5% 6.9%
x264 [info]: mb I I16..4: 0.6% 90.8% 8.6%
x264 [info]: mb P I16..4: 0.1% 42.8% 2.8% P16..4: 18.4% 26.5% 8.2% 0.8% 0.0% skip: 0.4%
x264 [info]: mb B I16..4: 0.0% 12.0% 0.5% B16..8: 38.3% 26.6% 6.2% direct:12.7% skip: 3.7% L0:42.6% L1:42.1% BI:15.3%
x264 [info]: 8x8 transform intra:94.8% inter:57.2%
x264 [info]: coded y,uvDC,uvAC intra: 99.5% 68.4% 19.4% inter: 79.2% 38.9% 0.4%
x264 [info]: i16 v,h,dc,p: 32% 15% 7% 46%
x264 [info]: i8 v,h,dc,ddl,ddr,vr,hd,vl,hu: 7% 6% 7% 11% 15% 15% 12% 13% 13%
x264 [info]: i4 v,h,dc,ddl,ddr,vr,hd,vl,hu: 6% 5% 3% 10% 17% 17% 14% 14% 14%
x264 [info]: i8c dc,h,v,p: 25% 35% 25% 15%
x264 [info]: Weighted P-Frames: Y:8.3% UV:3.7%
x264 [info]: ref P L0: 43.8% 10.3% 26.9% 17.2% 1.7% 0.0%
x264 [info]: ref B L0: 80.4% 16.0% 3.7%
x264 [info]: ref B L1: 86.4% 13.6%
x264 [info]: kb/s:21511.41
encoded 177015 frames, 2.86 fps, 21511.41 kb/s, duration 17:12:08.60

Сэмпл

Скачать

_________________
Показать сообщения:    

Текущее время: Сегодня 10:16

Часовой пояс: GMT



Вы не можете начинать темы
Вы не можете отвечать на сообщения
Вы не можете редактировать свои сообщения
Вы не можете удалять свои сообщения
Вы не можете голосовать в опросах
Вы не можете прикреплять файлы к сообщениям
Вы не можете скачивать файлы