Важное объявление!
У Нас Все раздачи мультитрекерные, при нуле пиров в релизах, можете смело вставать на закачку!
 
Автор Сообщение

HUNTER

Стаж:
4 года 4 месяца
Сообщений:
56719

Репутация: 101

[+] [-]
Вне форума [Профиль] [ЛС]

Угрюм-река---
Год выхода: 1968
Страна: СССР
Студия: Свердловская киностудия
Жанр: Драма
Продолжительность: 4 x ~ 01:19:00
Перевод: Оригинал
Режиссеры: Ярополк Лапшин
В ролях: Георгий Епифанцев, Виктор Чекмарев, Людмила Чурсина, Валентина Владимирова, Гиви Тохадзе, Александр Демьяненко, Афанасий Кочетков, Валентина Телегина, Евгений Весник, Иван Рыжов, Даниил Нетребин, Юрий Медведев, Нонна Тен, Николай Бадьев, Владимир Емельянов, Зинаида Невоструева, Валентина Иванова, Анатолий Торопов, Павел Махотин, Владимир Балашов, Валерий Чумичев, Анатолий Соловьев, Виктор Щеглов, Лилия Архипова, Валентин Донгузашвили, Константин Максимов, Павел Федосеев, Владимир Маренков, Владимир Пицек, Михаил Семенихин, Тамара Зимина, Виктор Колпаков, Никита Третьяков, Сергей Голованов, Виктор Кузнецов, Анатолий Бугреев, Игорь Белозеров, Нина Веселовская, Георгий Георгиу, Григорий Гецов--Сюжет:
Глухая сибирская тайга, страна купцов, золотодобытчиков, разбойников... В долгое путешествие по Угрюм - реке отправляет купец сына. Любовь, ненависть, дружба и предательство - это те круги ада, по которым суждено пройти героям.
Один из самых страстных советских фильмов - настоящий эпос о русской душе...
-- --Качество: DVDRip-AVC
Контейнер: MKV
Видеокодек: h.264
Аудиокодек: AC3
Видео: 720x544, 25 fps, 2250 kbps avg
Аудио: 48 kHz, AC3, 2 ch, 192.00 kbps avg-- --

MI

Код: copyText_writeLink('this.parentNode.parentNode.nextSibling.nextSibling'); Общее
Уникальный идентификатор : 200029102101574450833090294493239006095 (0x967C3428DECC783AB07B33900253538F)
Полное имя : D:\Films\Загрузки\User\Ugryum_reka\Ugryum-reka-1seriya.mkv
Формат : Matroska
Версия формата : Version 2
Размер файла : 1,36 Гбайт
Продолжительность : 1 ч. 19 м.
Общий поток : 2444 Кбит/сек
Дата кодирования : UTC 2012-07-31 16:26:46
Программа кодирования : mkvmerge v5.6.0 ('Kenya Kane') built on Jun 29 2012 15:01:44
Библиотека кодирования : libebml v1.2.3 + libmatroska v1.3.0
Видео
Идентификатор : 1
Формат : AVC
Формат/Информация : Advanced Video Codec
Профиль формата : [url=mailto:High@L4.1]High@L4.1[/url]
Параметр CABAC формата : Да
Параметр ReFrames формата : 6 кадров
Идентификатор кодека : V_MPEG4/ISO/AVC
Продолжительность : 1 ч. 19 м.
Битрейт : 2250 Кбит/сек
Ширина : 720 пикселей
Высота : 544 пикселя
Соотношение сторон : 4:3
Режим частоты кадров : Постоянный
Частота кадров : 25,000 кадров/сек
Цветовое пространство : YUV
Субдискретизация насыщенности : 4:2:0
Битовая глубина : 8 бит
Тип развёртки : Прогрессивная
Бит/(Пиксели*Кадры) : 0.230
Размер потока : 1,23 Гбайт (90%)
Библиотека кодирования : x264 core 125 r2200 999b753
Настройки программы : cabac=1 / ref=6 / deblock=1:-2:-1 / analyse=0x3:0x133 / me=umh / subme=9 / psy=1 / psy_rd=1.00:0.20 / mixed_ref=0 / me_range=16 / chroma_me=1 / trellis=2 / 8x8dct=1 / cqm=0 / deadzone=21,11 / fast_pskip=0 / chroma_qp_offset=-3 / threads=3 / lookahead_threads=1 / sliced_threads=0 / nr=0 / decimate=0 / interlaced=0 / bluray_compat=0 / constrained_intra=0 / bframes=4 / b_pyramid=2 / b_adapt=2 / b_bias=0 / direct=3 / weightb=1 / open_gop=0 / weightp=2 / keyint=250 / keyint_min=25 / scenecut=40 / intra_refresh=0 / rc_lookahead=60 / rc=2pass / mbtree=1 / bitrate=2250 / ratetol=1.0 / qcomp=0.60 / qpmin=0 / qpmax=69 / qpstep=4 / cplxblur=20.0 / qblur=0.5 / ip_ratio=1.40 / aq=1:1.00
Default : Да
Forced : Нет
Аудио
Идентификатор : 2
Формат : AC-3
Формат/Информация : Audio Coding 3
Расширение режима : CM (complete main)
Параметр Endianness формата : Big
Идентификатор кодека : A_AC3
Продолжительность : 1 ч. 19 м.
Вид битрейта : Постоянный
Битрейт : 192 Кбит/сек
Каналы : 2 канала
Расположение каналов : Front: L R
Частота : 48,0 КГц
Битовая глубина : 16 бит
Метод сжатия : С потерями
Размер потока : 110 Мбайт (8%)
Default : Да
Forced : Нет

Награды фильма:

Диплом «За многосерийную экранизацию», 1969 год, ВТФ
Государственная премия имени Братьев Васильевых, 1970.

Постер

--
Пожалуйста, оставайтесь на раздаче как можно дольше--

_________________
Показать сообщения:    

Текущее время: Сегодня 02:21

Часовой пояс: GMT



Вы не можете начинать темы
Вы не можете отвечать на сообщения
Вы не можете редактировать свои сообщения
Вы не можете удалять свои сообщения
Вы не можете голосовать в опросах
Вы не можете прикреплять файлы к сообщениям
Вы не можете скачивать файлы