Важное объявление!
У Нас Все раздачи мультитрекерные, при нуле пиров в релизах, можете смело вставать на закачку!
 
Автор Сообщение

HUNTER

Стаж:
4 года 4 месяца
Сообщений:
56765

Репутация: 101

[+] [-]
Вне форума [Профиль] [ЛС]

Увидеть Неаполь и умереть
Napoli: vita, morte e miracoli-
Год выпуска: 2007
Страна: Италия
Жанр: документальная криминалистика
Продолжительность: 01:36:32
Перевод: Профессиональный (двухголосый закадровый) (Кинокомпания "Селена Интернешнл" по заказу телеканала "24ДОК")
Русские субтитры: нет
Режиссер: Роберто Бурчиелли / Roberto Burchielli, Мауро Париссоне / Mauro Parissone
Описание: Неаполь – один из самых опасных городов Европы с самым высоким уровнем безработицы и преступности. В Неаполе все незаконно. Люди умирают, люди убивают, ежедневно люди оказываются жертвами ограблений. Главные герои фильма – мальчики из рабочих районов и полицейские, специализирующиеся на мелких преступлениях. (анонс канала "24ДОК)
Доп. информация: Запись со спутника (телеканал "24ДОК").
Награды: приз "Ennio" за лучший документальный фильм Flaiano Award 2007; приз Mitreo film festival 2007 за лучший документальный фильм.
Сэмпл: http://multi-up.com/919420
качество: DVB
формат: MPEG-PS (См. при проблемах с просмотром видео)
Видео: MPEG Video 2, 720x576@768x576 (4:3), 25 fps, ~3603 kbps avg, 0.347 bit/pixel
Аудио: 48 kHz, MPEG Audio 2, 2 ch, ~192.00 kbps avg

MediaInfo

Полное имя : H:\My Torrents\[apreder]Napoli_vita_morte_miracoli(2007)DVB.mpgФормат : MPEG-PSРазмер файла : 2,61 ГбайтПродолжительность : 1 ч. 36 м.Режим общего битрейта : ПеременныйОбщий поток : 3872 Кбит/сек
ВидеоИдентификатор : 224 (0xE0)Формат : MPEG VideoВерсия формата : Version 2Профиль формата : Main@MainПараметр BVOP формата : ДаПараметр матрицы формата : ВыборочнаяПараметр GOP формата : M=3, N=36Продолжительность : 1 ч. 36 м.Вид битрейта : ПеременныйБитрейт : 3603 Кбит/секШирина : 720 пикселейВысота : 576 пикселейСоотношение сторон : 4:3Частота кадров : 25,000 кадров/секСтандарт вещания : PALЦветовое пространство : YUVСубдискретизация насыщенности : 4:2:0Битовая глубина : 8 битТип развёртки : ЧересстрочнаяПорядок развёртки : Верхнее поле первоеМетод сжатия : С потерямиБит/(Пиксели*Кадры) : 0.347Временной код первого кадра : 00:00:00:00Оригинал временного кода : Group of pictures headerРазмер потока : 2,43 Гбайт (93%)
АудиоИдентификатор : 192 (0xC0)Формат : MPEG AudioВерсия формата : Version 1Профиль формата : Layer 2Продолжительность : 1 ч. 36 м.Вид битрейта : ПостоянныйБитрейт : 192 Кбит/секКаналы : 2 каналаЧастота : 48,0 КГцМетод сжатия : С потерямиРазмер потока : 133 Мбайт (5%)

Скриншоты


Резервные скриншоты


-1'034/1'016√

_________________
Показать сообщения:    

Текущее время: Сегодня 03:47

Часовой пояс: GMT



Вы не можете начинать темы
Вы не можете отвечать на сообщения
Вы не можете редактировать свои сообщения
Вы не можете удалять свои сообщения
Вы не можете голосовать в опросах
Вы не можете прикреплять файлы к сообщениям
Вы не можете скачивать файлы