Важное объявление!
У Нас Все раздачи мультитрекерные, при нуле пиров в релизах, можете смело вставать на закачку!
 
Автор Сообщение

HUNTER

Стаж:
4 года 4 месяца
Сообщений:
56722

Репутация: 101

[+] [-]
Вне форума [Профиль] [ЛС]

Убить священника / To Kill a Priest
Страна: Франция, США
Жанр: триллер, драма, история
Год выпуска: 1988
Продолжительность: 01:57:13
Перевод 1: Профессиональный (многоголосый закадровый) 1 канал / СТС
Перевод 2: Профессиональный (двухголосый закадровый) НТВ+
Cубтитры: английские
Оригинальная аудиодорожка: английский
Режиссер: Агнешка Холланд / Agnieszka Holland
В ролях: Кристофер Ламберт, Эд Харрис, Джосс Экленд, Тим Рот, Тимоти Сполл, Пит Постлетуэйт, Шери Лунги, Джоэнн Уэлли, Дэвид Суше, Чарли Кондо...
Описание: Варшава, начало 1980-х. Профсоюзное движение «Солидарность», ставшее, по сути, параллельной властью в стране, берет курс на конфронтацию с официальной властью. Католический священник Отец Алек, связанный с организацией, всячески способствует сплочению ее членов. Агент тайной полиции Штефана получает задание убить священника.
Доп. информация:
Перевод 1 канала с раздачи MacSim47.
Перевод НТВ+ с раздачи vasapel.
Синхронизация переводов - Dreven.
Сэмпл: http://multi-up.com/1055609
Тип релиза: WEB-DL 720p
Контейнер: MKV
Видео: 1280x716 (16:9), 23.976 fps, AVC, ~3999 Kbps, 0.182 bits/pixel
Аудио 1: Russian, 48.0 KHz, AC3, 2 ch, 192 Kbps - 1 канал
Аудио 2: Russian, 48.0 KHz, AC3, 2 ch, 192 Kbps - НТВ+
Аудио 3: English, 48.0 KHz, AC3, 2 ch, 192 Kbps

MediaInfo

General
Unique ID : 238925363260531800626263167938934929461 (0xB3BF59E578AD5930B1DB416AF604F835)
Complete name : D:\To Kill a Priest. WEB-DL 720p.mkv
Format : Matroska
Format version : Version 4 / Version 2
File size : 3.82 GiB
Duration : 1h 57mn
Overall bit rate : 4 668 Kbps
Movie name :
Encoded date : UTC 2015-06-26 07:34:52
Writing application : mkvmerge v8.0.0 ('Til The Day That I Die') 64bit
Writing library : libebml v1.3.1 + libmatroska v1.4.2
DURATION : 01:57:13.120000000
NUMBER_OF_FRAMES : 219785
NUMBER_OF_BYTES : 168794880
_STATISTICS_WRITING_APP : mkvmerge v8.0.0 ('Til The Day That I Die') 64bit
_STATISTICS_WRITING_DATE_UT : 2015-06-26 07:34:52
_STATISTICS_TAGS : BPS DURATION NUMBER_OF_FRAMES NUMBER_OF_BYTES
Video
ID : 1
Format : AVC
Format/Info : Advanced Video Codec
Format profile : High@L3.1
Format settings, CABAC : No
Format settings, ReFrames : 2 frames
Codec ID : V_MPEG4/ISO/AVC
Duration : 1h 57mn
Bit rate : 3 999 Kbps
Width : 1 280 pixels
Height : 716 pixels
Display aspect ratio : 16:9
Frame rate mode : Constant
Frame rate : 23.976 fps
Color space : YUV
Chroma subsampling : 4:2:0
Bit depth : 8 bits
Scan type : Progressive
Bits/(Pixel*Frame) : 0.182
Stream size : 3.27 GiB (86%)
Language : English
Default : Yes
Forced : No
Color range : Limited
Color primaries : BT.709
Transfer characteristics : BT.709
Matrix coefficients : BT.709
Audio #1
ID : 2
Format : AC-3
Format/Info : Audio Coding 3
Mode extension : CM (complete main)
Format settings, Endianness : Big
Codec ID : A_AC3
Duration : 1h 57mn
Bit rate mode : Constant
Bit rate : 192 Kbps
Channel(s) : 2 channels
Channel positions : Front: L R
Sampling rate : 48.0 KHz
Compression mode : Lossy
Stream size : 161 MiB (4%)
Title : 1 канал
Language : Russian
Default : Yes
Forced : No
Audio #2
ID : 3
Format : AC-3
Format/Info : Audio Coding 3
Mode extension : CM (complete main)
Format settings, Endianness : Big
Codec ID : A_AC3
Duration : 1h 57mn
Bit rate mode : Constant
Bit rate : 192 Kbps
Channel(s) : 2 channels
Channel positions : Front: L R
Sampling rate : 48.0 KHz
Compression mode : Lossy
Stream size : 161 MiB (4%)
Title : НТВ+
Language : Russian
Default : No
Forced : No
Audio #3
ID : 4
Format : AC-3
Format/Info : Audio Coding 3
Mode extension : CM (complete main)
Format settings, Endianness : Big
Codec ID : A_AC3
Duration : 1h 57mn
Bit rate mode : Constant
Bit rate : 192 Kbps
Channel(s) : 2 channels
Channel positions : Front: L R
Sampling rate : 48.0 KHz
Compression mode : Lossy
Stream size : 161 MiB (4%)
Language : English
Default : No
Forced : No
Text
ID : 5
Format : UTF-8
Codec ID : S_TEXT/UTF8
Codec ID/Info : UTF-8 Plain Text
Language : English
Default : No
Forced : No
Menu
00:00:00.000 : en:Chapter 1
00:10:37.000 : en:Chapter 2
00:20:17.000 : en:Chapter 3
00:30:24.000 : en:Chapter 4
00:40:46.000 : en:Chapter 5
00:51:39.000 : en:Chapter 6
01:00:29.000 : en:Chapter 7
01:10:34.000 : en:Chapter 8
01:20:19.000 : en:Chapter 9
01:30:36.000 : en:Chapter 10
01:42:31.000 : en:Chapter 11
01:50:15.000 : en:Chapter 12

Скриншоты


_________________
Показать сообщения:    

Текущее время: Сегодня 16:46

Часовой пояс: GMT



Вы не можете начинать темы
Вы не можете отвечать на сообщения
Вы не можете редактировать свои сообщения
Вы не можете удалять свои сообщения
Вы не можете голосовать в опросах
Вы не можете прикреплять файлы к сообщениям
Вы не можете скачивать файлы