Важное объявление!
У Нас Все раздачи мультитрекерные, при нуле пиров в релизах, можете смело вставать на закачку!
 
Автор Сообщение

HUNTER

Стаж:
4 года 4 месяца
Сообщений:
56798

Репутация: 101

[+] [-]
Вне форума [Профиль] [ЛС]

Убийство в синих тонах / Полуночный полицейский / Killing Blue / Midnight Cop / Uno sbirro nella notte
Страна: Германия
Жанр: триллер
Год выпуска: 1988
Продолжительность: 01:36:01
Перевод: Одноголосый закадровый Переводчик не опознан
Cубтитры: нет
Оригинальная аудиодорожка: нет
Режиссер: Питер Патцак / Peter Patzak
В ролях: Армин Мюллер-Шталь, Морган Фэйрчайлд, Фрэнк Сталлоне, Джулия Кент, Моника Бляйбтрой, Аллегра Кертис, Майкл Йорк, Харви Фридман, Грет 'Кралле' Кравинкель, Констанц Саския Ран
Описание: Инспектор Алекс Гласс с некоторых пор стал человеком закомплексованным. При попытке задержать преступника он потерял своего напарника. В ходе той же операции была застрелена случайно оказавшаяся рядом маленькая девочка. Жена и дочь оставили Алекса, и он теперь общается исключительно с одной черепахой. Однако работа есть работа, и каждый вечер инспектор Гласс выходит на улицы города, чтобы решать очередной кроссворд. Его последнее поручение — дело о нескольких убийствах в среде проституток и наркоманов. Алексу в помощники начальство назначило эффектную Ширли, поведение и внешность которой временами мало отличаются от местных шлюх. Впрочем, бесстрашия и сообразительности ей также не занимать…
Доп. информация: Диск из собственной коллекции.
Сэмпл: http://sendfile.su/1154181
Тип релиза: DVD5 (Custom)
Контейнер: DVD-Video
Видео: NTSC 4:3 (720x480) VBR
Аудио: Russian (Dolby AC3, 192 Кбит/сек, 2 ch)
Аудио 2: English (Dolby AC3, 192 Кбит/сек, 2 ch)

DVDInfo

Size: 4.10 Gb ( 4 302 406 KBytes ) - DVD-5
Enabled regions: 1, 2, 3, 4, 5, 6, 7, 8
VTS_01 :
Play Length: 01:35:49+00:00:12
Video: NTSC 4:3 (720x480) VBR
Audio:
Russian (Dolby AC3, 2 ch)
English (Dolby AC3, 2 ch)
Menu Video:
NTSC 4:3 (720x480) VBR
Menu English Language Unit :
Root Menu

MediaInfo

Общее
Полное имя : J:\Midnight Cop_1988\VIDEO_TS\VTS_01_1.VOB
Формат : MPEG-PS
Размер файла : 1024 Мбайт
Продолжительность : 23 м.
Режим общего битрейта : Переменный
Общий поток : 6110 Кбит/сек
Видео
Идентификатор : 224 (0xE0)
Формат : MPEG Video
Версия формата : Version 2
Профиль формата : Main@Main
Параметр BVOP формата : Да
Параметр матрицы формата : По умолчанию
Параметр GOP формата : M=3, N=13
Продолжительность : 23 м.
Вид битрейта : Переменный
Битрейт : 5600 Кбит/сек
Ширина : 720 пикселей
Высота : 480 пикселей
Соотношение сторон : 4:3
Частота кадров : 29,970 кадров/сек
Стандарт вещания : NTSC
Цветовое пространство : YUV
Субдискретизация насыщенности : 4:2:0
Битовая глубина : 8 бит
Тип развёртки : Чересстрочная
Порядок развёртки : Верхнее поле первое
Метод сжатия : С потерями
Бит/(Пиксели*Кадры) : 0.541
Размер потока : 939 Мбайт (92%)
Основные цвета : BT.601 NTSC
Характеристики трансфера : BT.601
Коэффициенты матрицы : BT.601
Аудио #1
Идентификатор : 189 (0xBD)-128 (0x80)
Формат : AC-3
Формат/Информация : Audio Coding 3
Расширение режима : CM (complete main)
Параметр Endianness формата : Big
Режим смешивания : DVD-Video
Продолжительность : 23 м.
Вид битрейта : Постоянный
Битрейт : 192 Кбит/сек
Каналы : 2 канала
Расположение каналов : Front: L R
Частота : 48,0 КГц
Битовая глубина : 16 бит
Метод сжатия : С потерями
Размер потока : 32,2 Мбайт (3%)
Аудио #2
Идентификатор : 189 (0xBD)-129 (0x81)
Формат : AC-3
Формат/Информация : Audio Coding 3
Профиль формата : Dolby Digital
Расширение режима : CM (complete main)
Параметр Endianness формата : Big
Режим смешивания : DVD-Video
Продолжительность : 23 м.
Вид битрейта : Постоянный
Битрейт : 192 Кбит/сек
Каналы : 2 канала
Расположение каналов : Front: L R
Частота : 48,0 КГц
Битовая глубина : 16 бит
Метод сжатия : С потерями
Размер потока : 32,2 Мбайт (3%)
Меню

Скриншоты меню

Скриншоты


_________________
Показать сообщения:    

Текущее время: Сегодня 07:53

Часовой пояс: GMT



Вы не можете начинать темы
Вы не можете отвечать на сообщения
Вы не можете редактировать свои сообщения
Вы не можете удалять свои сообщения
Вы не можете голосовать в опросах
Вы не можете прикреплять файлы к сообщениям
Вы не можете скачивать файлы