Важное объявление!
У Нас Все раздачи мультитрекерные, при нуле пиров в релизах, можете смело вставать на закачку!
 
Автор Сообщение

HUNTER

Стаж:
4 года 4 месяца
Сообщений:
56790

Репутация: 101

[+] [-]
Вне форума [Профиль] [ЛС]

Убей меня три раза / Kill Me Three Times
Страна: Австралия
Студия: Cargo Entertainment
Жанр: триллер, криминал, комедия
Год выпуска: 2014
Продолжительность: 01:30:22
Перевод: Любительский (многоголосый закадровый) BadCatStudio
Cубтитры: Rus, Eng
Оригинальная аудиодорожка: английский
Режиссер: Крив Стендерс / Kriv Stenders
В ролях: Саймон Пегг, Элис Брага, Тереза Палмер,Салливан Степлтон, Люк Хемсворт, Брайн Браун, Кэллон Малви
Описание: Профессиональный убийца Чарли Вульф после выполнения неудачного контракта оказывается втянутым в три истории: убийств, шантажа и мести .

Тип релиза: BDRip 720p
Контейнер: MKV
Видео: MPEG-4 AVC, 5291 Кбит/с, 1280x534, 23,976 fps
Аудио: Rus, AC3, 384 kb/s (6 ch), 48 kHz
Аудио 2: Eng, DTS, 1510 kb/s (6 ch), 48 kHz
Формат субтитров: softsub (SRT)

MediaInfo

x264 info: frame I:1230 Avg QP:14.19 size:124679
x264 info: frame P:28347 Avg QP:16.02 size: 53621
x264 info: frame B:100431 Avg QP:17.62 size: 20016
x264 info: consecutive B-frames: 2.6% 2.9% 7.1% 19.7% 17.4% 38.1% 5.9% 1.5% 1.7% 3.0%
Format : Matroska
Format version : Version 4 / Version 2
File size : 4.63 GiB
Duration : 1h 30mn
Overall bit rate : 7 330 Kbps
Movie name : Убей меня три раза. (Tonik)
Encoded date : UTC 2015-06-28 14:50:03
Writing application : mkvmerge v7.1.0 ('Good Love') 64bit built on Jul 27 2014 13:06:55
Writing library : libebml v1.3.0 + libmatroska v1.4.1
DURATION : 01:22:09.886000000
NUMBER_OF_FRAMES : 714
NUMBER_OF_BYTES : 32033
_STATISTICS_WRITING_APP : mkvmerge v7.1.0 ('Good Love') 64bit built on Jul 27 2014 13:06:55
_STATISTICS_WRITING_DATE_UTC : 2015-06-28 14:50:03
_STATISTICS_TAGS : BPS DURATION NUMBER_OF_FRAMES NUMBER_OF_BYTES
Video
ID : 1
Format : AVC
Format/Info : Advanced Video Codec
Format profile : High@L4.1
Format settings, CABAC : Yes
Format settings, ReFrames : 12 frames
Codec ID : V_MPEG4/ISO/AVC
Duration : 1h 30mn
Bit rate : 5 291 Kbps
Width : 1 280 pixels
Height : 534 pixels
Display aspect ratio : 2.40:1
Frame rate mode : Constant
Frame rate : 23.976 fps
Color space : YUV
Chroma subsampling : 4:2:0
Bit depth : 8 bits
Scan type : Progressive
Bits/(Pixel*Frame) : 0.323
Stream size : 3.34 GiB (72%)
Writing library : x264 core 146 r2538 121396c
Encoding settings : cabac=1 / ref=12 / deblock=1:-3:-3 / analyse=0x3:0x33 / me=umh / subme=11 / psy=1 / psy_rd=1.00:0.00 / mixed_ref=1 / me_range=48 / chroma_me=1 / trellis=2 / 8x8dct=1 / cqm=0 / deadzone=21,11 / fast_pskip=0 / chroma_qp_offset=-2 / threads=12 / lookahead_threads=2 / sliced_threads=0 / nr=0 / decimate=0 / interlaced=0 / bluray_compat=0 / constrained_intra=0 / bframes=9 / b_pyramid=2 / b_adapt=2 / b_bias=0 / direct=1 / weightb=1 / open_gop=0 / weightp=2 / keyint=240 / keyint_min=23 / scenecut=40 / intra_refresh=0 / rc=crf / mbtree=0 / crf=16.5 / qcomp=0.60 / qpmin=0 / qpmax=69 / qpstep=4 / ip_ratio=1.40 / pb_ratio=1.30 / aq=3:0.90
Language : English
Default : Yes
Forced : No
DURATION : 01:30:22.426000000
NUMBER_OF_FRAMES : 130008
NUMBER_OF_BYTES : 3683590074
_STATISTICS_WRITING_APP : mkvmerge v7.1.0 ('Good Love') 64bit built on Jul 27 2014 13:06:55
_STATISTICS_WRITING_DATE_UTC : 2015-06-28 14:50:03
_STATISTICS_TAGS : BPS DURATION NUMBER_OF_FRAMES NUMBER_OF_BYTES
Audio #1
ID : 2
Format : AC-3
Format/Info : Audio Coding 3
Mode extension : CM (complete main)
Format settings, Endianness : Big
Codec ID : A_AC3
Duration : 1h 30mn
Bit rate mode : Constant
Bit rate : 384 Kbps
Channel(s) : 6 channels
Channel positions : Front: L C R, Side: L R, LFE
Sampling rate : 48.0 KHz
Bit depth : 16 bits
Compression mode : Lossy
Stream size : 248 MiB (5%)
Title : BadCatStudio
Language : Russian
Default : Yes
Forced : No
Audio #2
ID : 3
Format : DTS
Format/Info : Digital Theater Systems
Mode : 16
Format settings, Endianness : Big
Codec ID : A_DTS
Duration : 1h 30mn
Bit rate mode : Constant
Bit rate : 1 509 Kbps
Channel(s) : 6 channels
Channel positions : Front: L C R, Side: L R, LFE
Sampling rate : 48.0 KHz
Bit depth : 24 bits
Compression mode : Lossy
Stream size : 975 MiB (21%)
Language : English
Default : No
Forced : No
Text #1
ID : 4
Format : UTF-8
Codec ID : S_TEXT/UTF8
Codec ID/Info : UTF-8 Plain Text
Language : Russian
Default : No
Forced : No
Text #2
ID : 5
Format : UTF-8
Codec ID : S_TEXT/UTF8
Codec ID/Info : UTF-8 Plain Text
Language : English
Default : No
Forced : No
Menu
00:00:00.000 : en:00:00:00.000
00:07:29.366 : en:00:07:29.366
00:13:41.571 : en:00:13:41.571
00:23:19.732 : en:00:23:19.732
00:30:45.385 : en:00:30:45.385
00:35:43.850 : en:00:35:43.850
00:44:16.863 : en:00:44:16.863
00:49:52.364 : en:00:49:52.364
00:57:46.546 : en:00:57:46.546
01:02:43.760 : en:01:02:43.760
01:12:23.297 : en:01:12:23.297
01:23:49.024 : en:01:23:49.024

Скриншоты


_________________
Показать сообщения:    

Текущее время: Сегодня 17:36

Часовой пояс: GMT



Вы не можете начинать темы
Вы не можете отвечать на сообщения
Вы не можете редактировать свои сообщения
Вы не можете удалять свои сообщения
Вы не можете голосовать в опросах
Вы не можете прикреплять файлы к сообщениям
Вы не можете скачивать файлы