Важное объявление!
У Нас Все раздачи мультитрекерные, при нуле пиров в релизах, можете смело вставать на закачку!
 
Автор Сообщение

HUNTER

Стаж:
4 года 4 месяца
Сообщений:
56848

Репутация: 101

[+] [-]
Вне форума [Профиль] [ЛС]

Тяжелый металл
Heavy Metal
«A Step Beyond Science Fiction»
Год выпуска: 1981
Страна: Канада
Жанр: мультфильм, фантастика, фэнтези, приключения
Продолжительность: 01:30:20
Перевод:
Профессиональный (Дублированный)
Профессиональный (Двухголосый закадровый)
Авторский (Одноголосый закадровый) - С.Визгунов
субтитры: есть-Режиссёр: Джеральд Поттертон : Gerald Potterton-Роли озвучивали: Дон Фрэнкс, Кэролайн Семпл, Ричард Романус, Сьюзэн Роман, Эл Уоксмен, Харви Аткин, Джон Кэнди, Гленис Вуттон Гросс, Мэрлин Лайтстоун, Джеки Барроуз-Описание: Это великолепный мультфильм для взрослых, снятый с огромным размахом по комиксам знаменитых художников Кевина Истмэна, Саймона Бизли и Эрика Тэлбота, рисующих для журнала «Heavy Metal». Удивительное сочетание ужасов, черного юмора и великолепного саундтрека, включающего Nazareth, Black Sabbath, Sammy Hagar, Blue Oyster Cult и др. Этот мультфильм заставит вас с затаенным дыханием следить за напряженной битвой между вселенскими силами добра и зла.- [url=_] [/url] релиз: -- Большое спасибо #Antisnl# за Дубляж;
- Большое спасибо lex2085 за С.Визгунова;
- Большое спасибо Jotnar за Remux;
- Работа с BDRemux'ом и звуком -Azureus--Качество: BDRemux 1080p
Формат: MKV
Видео кодек: AVC
Аудио кодек: AC3 : FLAC : DTS MA
Видео: 1920x1080 , 23,976 fps, ~39,0 Mbps avg, 0.724 bit/pixel
Аудио #1: [RUS] 48 kHz, AC3 Dolby Digital, 2/0 (L,R) ch, ~192 kbps - DUB
Аудио #2: [RUS] 48 kHz, AC3 Dolby Digital, 3/2 (L,C,R,l,r) + LFE ch, ~384 kbps avg - DVO
Аудио #3: [RUS] FLAC, 48 kHz, 2/0 (L,R) ch, ~588 kbps avg - AVO
Аудио #4: [ENG] DTS MA 5.1 / 48 kHz / 4241 kbps / 24 bit (Core: DTS 5.1, 48 kHz, 1509 kbps, 24 bit)
субтитры: русские, английские
навигация по главам: 16 глав (не именные)

MediaInfo

Общее
Уникальный идентификатор : 202494320049246624335289848961128457871 (0x9856FCC9DBCCA7E5A940743BFE6FE68F)
Полное имя : D:\Im\Тяжелый металл\Heavy Metal.1981.BDRemux 1080p.mkv
Формат : Matroska
Версия формата : Version 4 / Version 2
Размер файла : 25,4 Гбайт
Продолжительность : 1 ч. 30 м.
Режим общего битрейта : Переменный
Общий поток : 40,3 Мбит/сек
Название фильма : Heavy Metal.1981.BDRemux 1080p -Azureus-
Дата кодирования : UTC 2015-02-25 17:46:13
Программа кодирования : mkvmerge v7.5.0 ('Glass Culture') 32bit built on Jan 4 2015 16:37:25
Библиотека кодирования : libebml v1.3.1 + libmatroska v1.4.2
DURATION : 01:30:20.448000000
NUMBER_OF_FRAMES : 63521
NUMBER_OF_BYTES : 398205537
_STATISTICS_WRITING_APP : mkvmerge v7.5.0 ('Glass Culture') 32bit built on Jan 4 2015 16:37:25
_STATISTICS_WRITING_DATE_UTC : 2015-02-25 17:46:13
_STATISTICS_TAGS : BPS DURATION NUMBER_OF_FRAMES NUMBER_OF_BYTES
Видео
Идентификатор : 1
Формат : AVC
Формат/Информация : Advanced Video Codec
Профиль формата : High@L4.1
Параметр CABAC формата : Да
Параметр ReFrames формата : 4 кадра
Идентификатор кодека : V_MPEG4/ISO/AVC
Продолжительность : 1 ч. 30 м.
Вид битрейта : Переменный
Максимальный битрейт : 36,0 Мбит/сек
Ширина : 1920 пикселей
Высота : 1080 пикселей
Соотношение сторон : 16:9
Частота кадров : 23,976 кадра/сек
Цветовое пространство : YUV
Субдискретизация насыщенности : 4:2:0
Битовая глубина : 8 бит
Тип развёртки : Прогрессивная
Язык : English
Default : Да
Forced : Нет
DURATION : 01:30:20.457000000
NUMBER_OF_FRAMES : 129961
NUMBER_OF_BYTES : 23641645843
_STATISTICS_WRITING_APP : mkvmerge v7.5.0 ('Glass Culture') 32bit built on Jan 4 2015 16:37:25
_STATISTICS_WRITING_DATE_UTC : 2015-02-25 17:46:13
_STATISTICS_TAGS : BPS DURATION NUMBER_OF_FRAMES NUMBER_OF_BYTES
Основные цвета : BT.709-5, BT.1361, IEC 61966-2-4, SMPTE RP177
Характеристики трансфера : BT.709-5, BT.1361
Коэффициенты матрицы : BT.709-5, BT.1361, IEC 61966-2-4 709, SMPTE RP177
Аудио #1
Идентификатор : 2
Формат : AC-3
Формат/Информация : Audio Coding 3
Расширение режима : CM (complete main)
Идентификатор кодека : A_AC3
Продолжительность : 1 ч. 30 м.
Вид битрейта : Постоянный
Битрейт : 192 Кбит/сек
Каналы : 2 канала
Расположение каналов : Front: L R
Частота : 48,0 КГц
Битовая глубина : 16 бит
Метод сжатия : С потерями
Размер потока : 124 Мбайт (0%)
Заголовок : DUB
Язык : Russian
Default : Да
Forced : Нет
Аудио #2
Идентификатор : 3
Формат : AC-3
Формат/Информация : Audio Coding 3
Расширение режима : CM (complete main)
Идентификатор кодека : A_AC3
Продолжительность : 1 ч. 30 м.
Вид битрейта : Постоянный
Битрейт : 384 Кбит/сек
Каналы : 6 каналов
Расположение каналов : Front: L C R, Side: L R, LFE
Частота : 48,0 КГц
Битовая глубина : 16 бит
Метод сжатия : С потерями
Размер потока : 248 Мбайт (1%)
Заголовок : DVO
Язык : Russian
Default : Нет
Forced : Нет
Аудио #3
Идентификатор : 4
Формат : FLAC
Формат/Информация : Free Lossless Audio Codec
Идентификатор кодека : A_FLAC
Продолжительность : 1 ч. 30 м.
Вид битрейта : Переменный
Каналы : 2 канала
Частота : 48,0 КГц
Битовая глубина : 16 бит
Заголовок : AVO - С.Визгунов
Библиотека кодирования : libFLAC 1.2.1 (UTC 2007-09-17)
Язык : Russian
Default : Нет
Forced : Нет
Аудио #4
Идентификатор : 5
Формат : DTS
Формат/Информация : Digital Theater Systems
Профиль формата : MA / Core
Идентификатор кодека : A_DTS
Продолжительность : 1 ч. 30 м.
Вид битрейта : Переменный
Битрейт : 1561 Кбит/сек / 1510 Кбит/сек
Каналы : 6 каналов
Расположение каналов : Front: L C R, Side: L R, LFE
Частота : 48,0 КГц
Битовая глубина : 24 бит
Метод сжатия : Без потерь / Lossy
Заголовок : ENG
Язык : English
Default : Нет
Forced : Нет
Текст #1
Идентификатор : 6
Формат : UTF-8
Идентификатор кодека : S_TEXT/UTF8
Идентификатор кодека/Информация : UTF-8 Plain Text
Заголовок : Rus Sub
Язык : Russian
Default : Нет
Forced : Нет
Текст #2
Идентификатор : 7
Формат : UTF-8
Идентификатор кодека : S_TEXT/UTF8
Идентификатор кодека/Информация : UTF-8 Plain Text
Заголовок : Eng Sub
Язык : English
Default : Нет
Forced : Нет
Меню
00:00:00.000 : en:00:00:00.000
00:06:49.409 : en:00:06:49.409
00:13:00.780 : en:00:13:00.780
00:16:45.713 : en:00:16:45.713
00:22:36.230 : en:00:22:36.230
00:27:59.428 : en:00:27:59.428
00:33:21.208 : en:00:33:21.208
00:38:04.073 : en:00:38:04.073
00:41:04.587 : en:00:41:04.587
00:47:39.815 : en:00:47:39.815
00:55:28.200 : en:00:55:28.200
00:59:49.044 : en:00:59:49.044
01:02:46.763 : en:01:02:46.763
01:09:14.192 : en:01:09:14.192
01:16:24.830 : en:01:16:24.830
01:22:21.895 : en:01:22:21.895
____________________________________________
Стою на раздаче до 5 дней.
Просьба скачавшим как можно дольше не покидать раздачу!
ВСЕМ ПРИЯТНОГО ПРОСМОТРА!_________________________________________

_________________
Показать сообщения:    

Текущее время: Сегодня 21:33

Часовой пояс: GMT



Вы не можете начинать темы
Вы не можете отвечать на сообщения
Вы не можете редактировать свои сообщения
Вы не можете удалять свои сообщения
Вы не можете голосовать в опросах
Вы не можете прикреплять файлы к сообщениям
Вы не можете скачивать файлы
Наши партнеры: интернет магазин Ивановского трикотажа textilla.ru