Важное объявление!
У Нас Все раздачи мультитрекерные, при нуле пиров в релизах, можете смело вставать на закачку!
 
Автор Сообщение

димитри37

Стаж:
3 года 8 месяцев
Сообщений:
1237

Репутация: 127

[+] [-]
Вне форума [Профиль] [ЛС]

Тюрьма: Женский ад
Название: Тюрьма: Женский Ад
Оригинальное название: Anime perse / The Jail: The Women's Hell
Год выхода: 2006
Жанр: Триллер, драма
Режиссер: Бруно Маттеи
В ролях: Дайэн Крэйстан, Джим Гейнс, Одетт Кхан, Майк Монти, Amelie Pontailler, Иветт Изон
О фильме: Женская тюрьма под названием "Дом потерянных душ" находится в глухих джунглях. В тюрьме царит произвол: женщин избивают, унижают и, ко всему прочему, заставляют обслуживать клиентов в местном борделе. Устав от изнасилований и побоев, несколько женщин совершают побег. За ними в самую глубь непроходимых джунглей отправляется целая свора "охотников"...


Выпущено: Италия
Продолжительность: 01:34:00
Перевод: Любительский (одноголосый) [den904]
Файл
Формат: AVI
Качество: DVDRip
Видео: XVID, 720х400, 1695 Кбит/с
Аудио #1: Русский; AC3, 2 ch, 192 Кбит/с
Аудио #2: Английскй; AC3, 2 ch, 192 Кбит/с
Источник

MI

C:UsersASUSDesktopJenckiy.ad.2006.DVDRip.avi
General
Complete name : C:UsersASUSDesktopJenckiy.ad.2006.DVDRip.avi
Format : AVI
Format/Info : Audio Video Interleave
Format profile : OpenDML
File size : 1.38 GiB
Duration : 1h 34mn
Overall bit rate : 2 094 Kbps
Writing application : XviD4PSP 6.0 / 54.27.101
Video #0
ID : 0
Format : MPEG-4 Visual
Format profile : Advanced Simple@L5
Format settings, BVOP : 1
Format settings, QPel : No
Format settings, GMC : No warppoints
Format settings, Matrix : Default (H.263)
Codec ID : XVID
Codec ID/Hint : XviD
Duration : 1h 33mn
Bit rate : 1 695 Kbps
Width : 720 pixels
Height : 400 pixels
Display aspect ratio : 1.85:1
Frame rate : 25.000 fps
Color space : YUV
Chroma subsampling : 4:2:0
Bit depth : 8 bits
Scan type : Progressive
Compression mode : Lossy
Bits/(Pixel*Frame) : 0.235
Stream size : 1.11 GiB (81%)
Title : Anime perse / The Jail: The Women's Hell (2006)
Writing library : XviD 64
Audio #1
ID : 1
Format : AC-3
Format/Info : Audio Coding 3
Mode extension : CM (complete main)
Format settings, Endianness : Big
Codec ID : 2000
Duration : 1h 33mn
Bit rate mode : Constant
Bit rate : 192 Kbps
Channel(s) : 2 channels
Channel positions : Front: L R
Sampling rate : 48.0 KHz
Bit depth : 16 bits
Compression mode : Lossy
Stream size : 129 MiB (9%)
Alignment : Aligned on interleaves
Interleave, duration : 32 ms (0.80 video frame)
Audio #2
ID : 2
Format : AC-3
Format/Info : Audio Coding 3
Mode extension : CM (complete main)
Format settings, Endianness : Big
Codec ID : 2000
Duration : 1h 34mn
Bit rate mode : Constant
Bit rate : 192 Kbps
Channel(s) : 2 channels
Channel positions : Front: L R
Sampling rate : 48.0 KHz
Bit depth : 16 bits
Compression mode : Lossy
Stream size : 129 MiB (9%)
Alignment : Aligned on interleaves
Interleave, duration : 32 ms (0.80 video frame)
Title : English Audio (AC3 @ 224 kbps, 2 channels)

Скриншоты



Показать сообщения:    

Текущее время: Сегодня 17:56

Часовой пояс: GMT



Вы не можете начинать темы
Вы не можете отвечать на сообщения
Вы не можете редактировать свои сообщения
Вы не можете удалять свои сообщения
Вы не можете голосовать в опросах
Вы не можете прикреплять файлы к сообщениям
Вы не можете скачивать файлы