Важное объявление!
У Нас Все раздачи мультитрекерные, при нуле пиров в релизах, можете смело вставать на закачку!
 
Автор Сообщение

HUNTER

Стаж:
4 года 4 месяца
Сообщений:
56839

Репутация: 101

[+] [-]
Вне форума [Профиль] [ЛС]

Тюремный рок / Jailhouse Rock
Страна: США
Жанр: мюзикл, драма, музыка
Год выпуска: 1957
Продолжительность: 01:36:38
Перевод 1: Профессиональный (многоголосый закадровый)
Перевод 2: Профессиональный (многоголосый закадровый)
Cубтитры: русские (песни), английские (SDH)
Оригинальная аудиодорожка: английский
Режиссер: Ричард Торп / Richard Thorpe
В ролях: Элвис Пресли, Джуди Тайлер, Мики Шонесси, Вон Тейлор, Дженнифер Холден, Дин Джонс, Энн Нейленд, Дороти Эбботт, Питер Адамс, Франсуа Андре
Описание: Жил был парень. Работал он на стройке. Как-то в баре он подрался и убил человека. Тюрьма. В тюрьме он сидит в камере со звездой кантри, который сел за ограбление. Звезда кантри замечает у юного Элвиса талант и начинает его обучать.
После освобождения Элвис ищет работу певцом, но ему не везет. Но его замечает прелестная девушка, которая работала в музыкальном бизнесе. Много трудностей Элвису приходится пройти, прежде чем он добивается успеха.

Сэмпл: http://sendfile.su/975970
Тип релиза: BDRemux 1080p
Контейнер: MKV
Видео: VC-1 Video / 19162 kbps / 1080p / 23,976 fps / 16:9 / Advanced Profile 3
Аудио 1: Russian Dolby Digital Audio / 2.0 / 48 kHz / 192 kbps / DN -4dB (Многоголосый закадровый №1)
Аудио 2: Russian Dolby Digital Audio / 2.0 / 48 kHz / 192 kbps / DN -4dB (Многоголосый закадровый №2)
Аудио 3: English Dolby TrueHD Audio / 5.1 / 48 kHz / 1216 kbps / 16-bit (AC3 Embedded: 5.1 / 48 kHz / 640 kbps / DN -4dB)
Аудио 4: English Dolby Digital Audio / 1.0 / 48 kHz / 192 kbps / DN -4dB
Аудио 4: English Dolby Digital Audio / 2.0 / 48 kHz / 192 kbps / DN -4dB
MediaInfo
Общее
Уникальный идентификатор : 182717999363230047936080633884089631060 (0x897634E60BAC5A0896CED1A46505C154)
Полное имя : D:\Jailhouse Rock\Jailhouse Rock BDRemux1080p.mkv
Формат : Matroska
Версия формата : Version 2
Размер файла : 14,3 Гбайт
Продолжительность : 1 ч. 36 м.
Режим общего битрейта : Переменный
Общий поток : 21,2 Мбит/сек
Название фильма : Jailhouse Rock
Дата кодирования : UTC 2014-05-05 14:15:23
Программа кодирования : mkvmerge v5.6.0 ('Kenya Kane') built on May 27 2012 16:44:04
Библиотека кодирования : libebml v1.2.3 + libmatroska v1.3.0
Видео
Идентификатор : 1
Формат : VC-1
Профиль формата : Advanced@L3
Идентификатор кодека : V_MS/VFW/FOURCC / WVC1
Идентификатор кодека/Подсказка : Microsoft
Продолжительность : 1 ч. 36 м.
Ширина : 1920 пикселей
Высота : 1080 пикселей
Соотношение сторон : 16:9
Режим частоты кадров : Постоянный
Частота кадров : 23,976 кадра/сек
Цветовое пространство : YUV
Субдискретизация насыщенности : 4:2:0
Битовая глубина : 8 бит
Тип развёртки : Прогрессивная
Метод сжатия : С потерями
Default : Да
Forced : Нет
Аудио #1
Идентификатор : 2
Формат : AC-3
Формат/Информация : Audio Coding 3
Расширение режима : CM (complete main)
Параметр Endianness формата : Big
Идентификатор кодека : A_AC3
Продолжительность : 1 ч. 36 м.
Вид битрейта : Постоянный
Битрейт : 192 Кбит/сек
Каналы : 2 канала
Расположение каналов : Front: L R
Частота : 48,0 КГц
Битовая глубина : 16 бит
Метод сжатия : С потерями
Размер потока : 133 Мбайт (1%)
Язык : Russian
Default : Да
Forced : Нет
Аудио #2
Идентификатор : 3
Формат : AC-3
Формат/Информация : Audio Coding 3
Расширение режима : CM (complete main)
Параметр Endianness формата : Big
Идентификатор кодека : A_AC3
Продолжительность : 1 ч. 36 м.
Вид битрейта : Постоянный
Битрейт : 192 Кбит/сек
Каналы : 2 канала
Расположение каналов : Front: L R
Частота : 48,0 КГц
Битовая глубина : 16 бит
Метод сжатия : С потерями
Размер потока : 133 Мбайт (1%)
Язык : Russian
Default : Нет
Forced : Нет
Аудио #3
Идентификатор : 4
Формат : TrueHD
Идентификатор кодека : A_TRUEHD
Продолжительность : 1 ч. 36 м.
Вид битрейта : Переменный
Максимальный битрейт : 2076 Кбит/сек
Каналы : 6 каналов
Расположение каналов : Front: L C R, Side: L R, LFE
Частота : 48,0 КГц
Метод сжатия : Без потерь
Задержка видео : -42 мс.
Язык : English
Default : Нет
Forced : Нет
Аудио #4
Идентификатор : 5
Формат : AC-3
Формат/Информация : Audio Coding 3
Расширение режима : CM (complete main)
Параметр Endianness формата : Big
Идентификатор кодека : A_AC3
Продолжительность : 1 ч. 36 м.
Вид битрейта : Постоянный
Битрейт : 192 Кбит/сек
Каналы : 1 канал
Расположение каналов : Front: C
Частота : 48,0 КГц
Битовая глубина : 16 бит
Метод сжатия : С потерями
Размер потока : 133 Мбайт (1%)
Язык : English
Default : Нет
Forced : Нет
Аудио #5
Идентификатор : 6
Формат : AC-3
Формат/Информация : Audio Coding 3
Расширение режима : CM (complete main)
Параметр Endianness формата : Big
Идентификатор кодека : A_AC3
Продолжительность : 1 ч. 36 м.
Вид битрейта : Постоянный
Битрейт : 192 Кбит/сек
Каналы : 2 канала
Расположение каналов : Front: L R
Частота : 48,0 КГц
Битовая глубина : 16 бит
Метод сжатия : С потерями
Размер потока : 133 Мбайт (1%)
Язык : English
Default : Нет
Forced : Нет
Текст #1
Идентификатор : 7
Формат : PGS
Режим смешивания : zlib
Идентификатор кодека : S_HDMV/PGS
Идентификатор кодека/Информация : The same subtitle format used on BDs/HD-DVDs
Язык : Russian
Default : Да
Forced : Нет
Текст #2
Идентификатор : 8
Формат : PGS
Режим смешивания : zlib
Идентификатор кодека : S_HDMV/PGS
Идентификатор кодека/Информация : The same subtitle format used on BDs/HD-DVDs
Язык : English
Default : Нет
Forced : Нет
Текст #3
Идентификатор : 9
Формат : PGS
Режим смешивания : zlib
Идентификатор кодека : S_HDMV/PGS
Идентификатор кодека/Информация : The same subtitle format used on BDs/HD-DVDs
Язык : English
Default : Нет
Forced : Нет
Скриншоты

_________________
Показать сообщения:    

Текущее время: Сегодня 01:33

Часовой пояс: GMT



Вы не можете начинать темы
Вы не можете отвечать на сообщения
Вы не можете редактировать свои сообщения
Вы не можете удалять свои сообщения
Вы не можете голосовать в опросах
Вы не можете прикреплять файлы к сообщениям
Вы не можете скачивать файлы