Важное объявление!
У Нас Все раздачи мультитрекерные, при нуле пиров в релизах, можете смело вставать на закачку!
 
Автор Сообщение

HUNTER

Стаж:
4 года 4 месяца
Сообщений:
56719

Репутация: 101

[+] [-]
Вне форума [Профиль] [ЛС]

-Тыквоголовый 2: Кровавые Крылья / Адская месть / Pumpkinhead II: Blood Wings-Страна: США
Жанр: ужасы, триллер
Год выпуска: 1993
Продолжительность: 01:29:00-Перевод: Профессиональный (многоголосый закадровый) НТВ+
Перевод 2: Авторский (одноголосый закадровый) П. Карцев
Перевод 3: Авторский (одноголосый закадровый) Ю. Живов
Перевод 4: Авторский (одноголосый закадровый) С. Визгунов
Cубтитры: нет
Оригинальная аудиодорожка: английский-Режиссер: Джефф Барр / Jeff Burr
В ролях: Эндрю Робинсон (Sean Braddock), Эми Доленц (Jenny Braddock), Солейл Мун Фрай (Marcie), Дж. Тревор Эдмонд (Danny Dixon), Хилл Харпер (Peter), Александр Полински (Paul), Марк МакКрэкен (Pumpkinhead), Стив Кэнэли (Judge Dixon), Глория Хендри (Delilah Pettibone), Лилиан Шовин (Miss Osie).-Описание: Тыквоголовый крылатый монстр возвращается! Как и в первой части объектом его внимания становятся подростки, случайно возродившие к жизни смертоносное существо.-Сэмпл: https://yadi.sk/i/ZJIxW0t_cjpep-Тип релиза: BDRemux 1080p
Контейнер: MKV
Видео: MPEG-4 AVC Video 19276 kbps 1080p / 23.976 fps / 16:9 / High Profile 4.1
Аудио: Russian / AC3 / 48 kHz / 2 Ch / 192 kbps | НТВ+
Аудио 2: DTS-HD Master Audio Russian 2876 kbps 7.1 / 48 kHz / 16-bit (DTS Core: 5.1 / 48 kHz / 768 kbps / 16-bit) | П. Карцев
Аудио 3: DTS-HD Master Audio Russian 2874 kbps 7.1 / 48 kHz / 16-bit (DTS Core: 5.1 / 48 kHz / 768 kbps / 16-bit) | Ю. Живов
Аудио 4: Russian / AC3 / 48 kHz / 2 Ch / 192 kbps | С. Визгунов
Аудио 5: DTS-HD Master Audio English 2864 kbps 7.1 / 48 kHz / 16-bit (DTS Core: 5.1 / 48 kHz / 768 kbps / 16-bit)

MI

Код:
General
Unique ID                                : 234838839366436589303683094231687690551 (0xB0AC50B675631666A50B63579D58F937)
Complete name                            : Z:\+ Классика (70-80 xx)\Тыквоголовый 2. Кровавые крылья (1993. Pumpkinhead II. Blood Wings).mkv
Format                                   : Matroska
Format version                           : Version 2
File size                                : 17.6 GiB
Duration                                 : 1h 29mn
Overall bit rate mode                    : Variable
Overall bit rate                         : 28.3 Mbps
Encoded date                             : UTC 2014-11-16 02:02:11
Writing application                      : mkvmerge v4.9.1 ('Ich will') сборка от Jul 11 2011 23:53:15
Writing library                          : libebml v1.2.1 + libmatroska v1.1.1
Video
ID                                       : 1
Format                                   : AVC
Format/Info                              : Advanced Video Codec
Format profile                           : High@L4.1
Format settings, CABAC                   : Yes
Format settings, ReFrames                : 2 frames
Format settings, GOP                     : M=1, N=5
Codec ID                                 : V_MPEG4/ISO/AVC
Duration                                 : 1h 29mn
Bit rate mode                            : Variable
Maximum bit rate                         : 30.2 Mbps
Width                                    : 1 920 pixels
Height                                   : 1 080 pixels
Display aspect ratio                     : 16:9
Frame rate mode                          : Constant
Frame rate                               : 23.976 fps
Color space                              : YUV
Chroma subsampling                       : 4:2:0
Bit depth                                : 8 bits
Scan type                                : Progressive
Title                                    : Pumpkinhead II Blood Wings (1993) 1080p BD-Remux HDCLUB
Language                                 : English
Default                                  : Yes
Forced                                   : No
Audio #1
ID                                       : 2
Format                                   : AC-3
Format/Info                              : Audio Coding 3
Mode extension                           : CM (complete main)
Format settings, Endianness              : Big
Codec ID                                 : A_AC3
Duration                                 : 1h 29mn
Bit rate mode                            : Constant
Bit rate                                 : 192 Kbps
Channel(s)                               : 2 channels
Channel positions                        : Front: L R
Sampling rate                            : 48.0 KHz
Bit depth                                : 16 bits
Compression mode                         : Lossy
Stream size                              : 122 MiB (1%)
Title                                    : MVO [ НТВ+]
Language                                 : Russian
Default                                  : Yes
Forced                                   : No
Audio #2
ID                                       : 3
Format                                   : DTS
Format/Info                              : Digital Theater Systems
Format profile                           : MA / Core
Mode                                     : 16
Format settings, Endianness              : Big
Codec ID                                 : A_DTS
Duration                                 : 1h 29mn
Bit rate mode                            : Variable
Bit rate                                 : Unknown / 768 Kbps
Channel(s)                               : 8 channels / 6 channels
Channel positions                        : Front: L C R, Side: L R, Back: L R, LFE / Front: L C R, Side: L R, LFE
Sampling rate                            : 48.0 KHz
Bit depth                                : 16 bits
Compression mode                         : Lossless / Lossy
Title                                    : Пётр Карцев
Language                                 : Russian
Default                                  : No
Forced                                   : No
Audio #3
ID                                       : 4
Format                                   : DTS
Format/Info                              : Digital Theater Systems
Format profile                           : MA / Core
Mode                                     : 16
Format settings, Endianness              : Big
Codec ID                                 : A_DTS
Duration                                 : 1h 29mn
Bit rate mode                            : Variable
Bit rate                                 : Unknown / 768 Kbps
Channel(s)                               : 8 channels / 6 channels
Channel positions                        : Front: L C R, Side: L R, Back: L R, LFE / Front: L C R, Side: L R, LFE
Sampling rate                            : 48.0 KHz
Bit depth                                : 16 bits
Compression mode                         : Lossless / Lossy
Title                                    : Юрий Живов
Language                                 : Russian
Default                                  : No
Forced                                   : No
Audio #4
ID                                       : 5
Format                                   : AC-3
Format/Info                              : Audio Coding 3
Mode extension                           : CM (complete main)
Format settings, Endianness              : Big
Codec ID                                 : A_AC3
Duration                                 : 1h 29mn
Bit rate mode                            : Constant
Bit rate                                 : 192 Kbps
Channel(s)                               : 2 channels
Channel positions                        : Front: L R
Sampling rate                            : 48.0 KHz
Bit depth                                : 16 bits
Compression mode                         : Lossy
Stream size                              : 122 MiB (1%)
Title                                    : Сергей Визгунов
Language                                 : Russian
Default                                  : No
Forced                                   : No
Audio #5
ID                                       : 6
Format                                   : DTS
Format/Info                              : Digital Theater Systems
Format profile                           : MA / Core
Mode                                     : 16
Format settings, Endianness              : Big
Codec ID                                 : A_DTS
Duration                                 : 1h 29mn
Bit rate mode                            : Variable
Bit rate                                 : Unknown / 768 Kbps
Channel(s)                               : 8 channels / 6 channels
Channel positions                        : Front: L C R, Side: L R, Back: L R, LFE / Front: L C R, Side: L R, LFE
Sampling rate                            : 48.0 KHz
Bit depth                                : 16 bits
Compression mode                         : Lossless / Lossy
Language                                 : English
Default                                  : No
Forced                                   : No
Menu
00:00:00.000                             : en:00:00:00.000
00:02:24.018                             : en:00:02:24.018
00:06:20.963                             : en:00:06:20.963
00:16:09.969                             : en:00:16:09.969
00:27:29.980                             : en:00:27:29.980
00:32:58.017                             : en:00:32:58.017
00:40:55.034                             : en:00:40:55.034
00:48:47.965                             : en:00:48:47.965
00:57:10.927                             : en:00:57:10.927
01:07:58.949                             : en:01:07:58.949
01:14:22.916                             : en:01:14:22.916
01:24:07.917                             : en:01:24:07.917

Скриншоты



Зеркало


Цитата:
Цитата:

  • Релиз . Спасибо ilgizik01!
  • Дорожки №2,3 получены путем наложения чистых голосов на центральный канал оригинального DTS-HD MA.
  • За дорогу П. Карцева спасибо анонимному пользователю.
  • Сохранены оригинальные чаптеры как на Blu-ray.

_________________
Показать сообщения:    

Текущее время: Сегодня 23:35

Часовой пояс: GMT



Вы не можете начинать темы
Вы не можете отвечать на сообщения
Вы не можете редактировать свои сообщения
Вы не можете удалять свои сообщения
Вы не можете голосовать в опросах
Вы не можете прикреплять файлы к сообщениям
Вы не можете скачивать файлы