Важное объявление!
У Нас Все раздачи мультитрекерные, при нуле пиров в релизах, можете смело вставать на закачку!
 
Автор Сообщение

HUNTER

Стаж:
4 года 4 месяца
Сообщений:
56790

Репутация: 101

[+] [-]
Вне форума [Профиль] [ЛС]

-Ты лучше смотри в оба / You Better Watch Out-Страна: США
Жанр: слэшер, ужасы, триллер
Год выпуска: 1980
Продолжительность: 01:34:12-Перевод: Авторский (одноголосый закадровый) Андрей Дольский
Cубтитры: нет
Оригинальная аудиодорожка: английский-Режиссер: Льюис Джексон / Lewis Jackson
В ролях: Брэндон Мэггарт, Джефри ДеМанн, Дайян Халл, Энди Фенвик, Брайан Невилл, Джо Джамрог, Уолли Моран, Гас Салуд, Эллен МакЭлдафф, Брайан Хэртиган-Описание: Канун рождества 1947 года. Маленький мальчик Гарри случайно видит, как его мать занимается оральным сексом с мужчиной в наряде Санта — Клауса. Гарри выбегает из дома и в припадке ревности ломает стоящего во дворе снеговика, растаптывая снег на мелкие кусочки. Проходит много лет. Гарри очень трепетно относится к рождественским праздникам и обожает Санта Клауса. Он даже работает на кукольной фабрике «Jolly Dream Toy Factory», изготавливающей рождественские игрушки. Но разум Гарри настолько поврежден, что он пристально наблюдает за детьми и заносит их имена в две свои книги: «Плохие дети» и «Хорошие дети». Оказаться в том или ином списке ребёнок может в соответствии со своим отношением к рождеству. Постепенно безумие Гарри начинает принимать насильственные формы...-Сэмпл: https://yadi.sk/i/TKDbt4N_qRZbq-Тип релиза: BDRemux 1080p
Контейнер: MKV
Видео: MPEG-4 AVC Video / 23029 kbps / 1080p / 23.976 fps / 16:9 / High Profile 4.1
Аудио: Russian / Dolby Digital Audio / 2.0 / 48 kHz / 192 kbps
Аудио 2: English / Dolby Digital Audio / 2.0 / 48 kHz / 384 kbps

MI

GeneralUnique ID : 173128777668914277640500564618323985062 (0x823F63C458E9736F9C088B3D157482A6)Complete name : P:\Слэшеры\Ты лучше смотри в оба (1980. You Better Watch Out).mkvFormat : MatroskaFormat version : Version 2File size : 15.5 GiBDuration : 1h 34mnOverall bit rate mode : VariableOverall bit rate : 23.6 MbpsMovie name : Release for RuTrackerEncoded date : UTC 2016-03-23 17:58:25Writing application : mkvmerge v4.9.1 ('Ich will') сборка от Jul 11 2011 23:53:15Writing library : libebml v1.2.1 + libmatroska v1.1.1Cover : YesAttachments : cover.jpg
VideoID : 1Format : AVCFormat/Info : Advanced Video CodecFormat profile : High@L4.1Format settings, CABAC : YesFormat settings, ReFrames : 4 framesFormat settings, GOP : M=4, N=24Codec ID : V_MPEG4/ISO/AVCDuration : 1h 34mnBit rate mode : VariableBit rate : 22.5 MbpsMaximum bit rate : 39.0 MbpsWidth : 1 920 pixelsHeight : 1 080 pixelsDisplay aspect ratio : 16:9Frame rate mode : ConstantFrame rate : 23.976 (24000/1001) fpsColor space : YUVChroma subsampling : 4:2:0Bit depth : 8 bitsScan type : ProgressiveBits/(Pixel*Frame) : 0.453Stream size : 14.8 GiB (96%)Title : You Better Watch Out 1980 1080p GER Blu-ray AVC DD 2.0Language : EnglishDefault : YesForced : NoColor range : LimitedColor primaries : BT.709Transfer characteristics : BT.709Matrix coefficients : BT.709
Audio #1ID : 2Format : AC-3Format/Info : Audio Coding 3Mode extension : CM (complete main)Format settings, Endianness : BigCodec ID : A_AC3Duration : 1h 34mnBit rate mode : ConstantBit rate : 192 KbpsChannel(s) : 2 channelsChannel positions : Front: L RSampling rate : 48.0 KHzFrame rate : 31.250 fps (1536 spf)Compression mode : LossyStream size : 129 MiB (1%)Title : Андрей ДольскийLanguage : RussianDefault : YesForced : No
Audio #2ID : 3Format : AC-3Format/Info : Audio Coding 3Mode extension : CM (complete main)Format settings, Endianness : BigCodec ID : A_AC3Duration : 1h 34mnBit rate mode : ConstantBit rate : 384 KbpsChannel(s) : 2 channelsChannel positions : Front: L RSampling rate : 48.0 KHzFrame rate : 31.250 fps (1536 spf)Compression mode : LossyStream size : 259 MiB (2%)Language : EnglishDefault : NoForced : No
Menu00:00:00.000 : en:00:00:00.00000:10:38.429 : en:00:10:38.42900:23:37.833 : en:00:23:37.83300:33:01.021 : en:00:33:01.02100:40:24.339 : en:00:40:24.33900:49:53.908 : en:00:49:53.90801:09:10.104 : en:01:09:10.10401:18:42.801 : en:01:18:42.801

Скриншоты



Зеркало


Цитата:
  • Ремукс с немецкого диска. За него спасибо kul с HDBits.
  • Русская дорога с [url=viewtopic.php?t=4944251]этой[/url] раздачи. За работу над [url=viewtopic.php?t=4412203]дорогой[/url] благодарим Linger babe
  • Сохранены оригинальные чаптеры как на Blu-ray.

_________________
Показать сообщения:    

Текущее время: Сегодня 17:42

Часовой пояс: GMT



Вы не можете начинать темы
Вы не можете отвечать на сообщения
Вы не можете редактировать свои сообщения
Вы не можете удалять свои сообщения
Вы не можете голосовать в опросах
Вы не можете прикреплять файлы к сообщениям
Вы не можете скачивать файлы