Важное объявление!
У Нас Все раздачи мультитрекерные, при нуле пиров в релизах, можете смело вставать на закачку!
 
Автор Сообщение

HUNTER

Стаж:
4 года 4 месяца
Сообщений:
56772

Репутация: 101

[+] [-]
Вне форума [Профиль] [ЛС]

Тутанхамончик: Битва фараонов / Tutenstein: Clash of the Pharaohs
Год выпуска: 2008
Страна: США
Жанр: мультфильм
Продолжительность: 01:10:32
Перевод: Профессиональный (многоголосый закадровый)
Русские субтитры: нет
Режиссер: Чарльз Гросвенор / Charles Grosvenor
Описание: Как чудесно можно изменить свою жизнь, если твой лучший друг — могущественный волшебник из прошлого! Главная героиня приключенческого мультика «Тутенштейн» — обычная школьница, которая по вечерам подрабатывает, убирая огромные и мрачные залы музея древнего мира. Протирая пыль в зале египтологии, золушка из музея случайно совершает чудо — она оживляет мумию юного принца Египта.
Вернувшийся к жизни Тутенштейн — обычный тинэйджер, только очень несовременный, избалованный из-за царского происхождения и умеющий колдовать. Несмотря на все предостережения, Тутенштейн не удержится и предпримет попытку вернуть всё человечество в эпоху Древнего мира! Ох и хлопотное это дело — дружить с маленьким магом! Сколько еще сюрпризов преподнесёт Тутенштейн своей спасительнице? Удастся ли ей сокрыть факт воскрешения неугомонной мумии от директора музея и вездесущих журналистов?- | Совместный релиз: и -Формат: DVDRip | (Sample)
Качество: AVI
Видео: 704x512 (1.38:1), 25 fps, XviD build 73 ~2177 kbps avg, 0.24 bit/pixel
Аудио #1: 48 kHz, AC3 Dolby Digital, 3/2 (L,C,R,l,r) + LFE ch, ~384 kbps, Русский
Аудио #2: 48 kHz, AC3 Dolby Digital, 3/2 (L,C,R,l,r) + LFE ch, ~384 kbps, Английский
Субтитры: отсутствуют

MediaInfo

GeneralComplete name : Tutanhamonchik_2008_1.45_Olu6ka.aviFormat : AVIFormat/Info : Audio Video InterleaveFile size : 1.46 GiBDuration : 1h 10mnOverall bit rate : 2 961 KbpsWriting application : VirtualDubModRus 1.5.10.2 (build 2542/release)Writing library : VirtualDubMod build 2542/release
VideoID : 0Format : MPEG-4 VisualFormat profile : Advanced Simple@L5Format settings, BVOP : 1Format settings, QPel : NoFormat settings, GMC : No warppointsFormat settings, Matrix : CustomCodec ID : XVIDCodec ID/Hint : XviDDuration : 1h 10mnBit rate : 2 179 KbpsWidth : 704 pixelsHeight : 512 pixelsDisplay aspect ratio : 1.375Frame rate : 25.000 fpsColor space : YUVChroma subsampling : 4:2:0Bit depth : 8 bitsScan type : ProgressiveCompression mode : LossyBits/(Pixel*Frame) : 0.242Stream size : 1.07 GiB (74%)Writing library : XviD 73
Audio #1ID : 1Format : AC-3Format/Info : Audio Coding 3Mode extension : CM (complete main)Format settings, Endianness : BigCodec ID : 2000Duration : 1h 10mnBit rate mode : ConstantBit rate : 384 KbpsChannel count : 6 channelsChannel positions : Front: L C R, Side: L R, LFESampling rate : 48.0 KHzBit depth : 16 bitsCompression mode : LossyStream size : 194 MiB (13%)Alignment : Split accross interleavesInterleave, duration : 40 ms (1.00 video frame)Interleave, preload duration : 500 ms
Audio #2ID : 2Format : AC-3Format/Info : Audio Coding 3Mode extension : CM (complete main)Format settings, Endianness : BigCodec ID : 2000Duration : 1h 10mnBit rate mode : ConstantBit rate : 384 KbpsChannel count : 6 channelsChannel positions : Front: L C R, Side: L R, LFESampling rate : 48.0 KHzBit depth : 16 bitsCompression mode : LossyStream size : 194 MiB (13%)Alignment : Split accross interleavesInterleave, duration : 40 ms (1.00 video frame)Interleave, preload duration : 500 ms

Сравнение


http://rutracker.org/forum/viewtopic.php?t=3018363
http://screenshotcomparison.com/comparison/125205
вшитая реклама стороннего сайта + неудачный деинтерлейс
Спасибо noon за DVD5 и shurik-work за хранение исходников!

_________________
Показать сообщения:    

Текущее время: Сегодня 19:20

Часовой пояс: GMT



Вы не можете начинать темы
Вы не можете отвечать на сообщения
Вы не можете редактировать свои сообщения
Вы не можете удалять свои сообщения
Вы не можете голосовать в опросах
Вы не можете прикреплять файлы к сообщениям
Вы не можете скачивать файлы