Важное объявление!
У Нас Все раздачи мультитрекерные, при нуле пиров в релизах, можете смело вставать на закачку!
 
Автор Сообщение

HUNTER

Стаж:
4 года 4 месяца
Сообщений:
56765

Репутация: 101

[+] [-]
Вне форума [Профиль] [ЛС]

| Все релизы мультфильма || BDRip-AVC, 2.84 GB |- P R E S E N T SТурбо / Turbo-
Страна: США
Жанр: мультфильм, приключения, комедия, спорт, семейный
Продолжительность: 01:35:41
Год выпуска: 2013
Перевод: Профессиональный (полное дублирование)
Субтитры: есть-Режиссёр: Дэвид Сорен / David Soren
Роли озвучивали: Райан Рейнольдс, Пол Джаматти, Майкл Пенья, Снуп Догг, Майя Рудольф, Мишель Родригес, Сэмюэл Л. Джексон, Луис Гусман, Билл Хейдер, Бен Шварц, Ричард Дженкинс, Кен Жонг, Марио Андретти, Майк Белл...
Роли дублировали: Тимур Родригез, Алексей Макрецкий, Александр Хомик, Александр Аравушкин, Саймон, Юлия Морозова, Станислав Концевич, Олег Куликович, Максим Сергеев, Александр Лушин, Мария Цветкова, Валентин Морозов- | | -Описание: Ничто так не раздражает темпераментную, мечтающую о скорости улитку с говорящим именем Турбо, как неспешная жизнь, медленные разговоры, заторможенные соседи. Пусть наш герой выглядит большим чудаком в этом вялом, неторопливом мире, пусть он идёт вопреки закону природы о «рождённом ползать», но если в сердце горит «пламенный мотор», а душа верит в чудо, оно просто не имеет права не произойти!...-Доп. информация: BDRip-AVC 1200x510 (2.353:1) сделан с Blu-Ray диска Turbo 2013 BluRay 1080p AVC DTS-HD MA7.1-CHDBits.
Отдельное спасибо xfiles за подготовку субтитров.
-Сэмпл/Sample
(27.4 MB, 1 минута)-Качество: BDRip-AVC
Формат: MKV
Видео: 1200x510 (2.353:1), 23,976 fps, ~2908 kbps avg, 0.198 bit/pixel
Аудио #1: Русский, AC3, 6 ch, 48 kHz, 448 kbps - Дубляж | Студия "НЕВАФИЛЬМ"
Аудио #2: Украинский, AC3, 6 ch, 48 kHz, 448 kbps - Дубляж
Аудио #3: English, AC3 EX, 6 ch, 48 kHz, 448 kbps - Original
Субтитры: Русские (полные), Украинские (полные), English (Full, SDH)
Навигация по главам: есть (28 не именованных глав)

MediaInfo / x264Log

x264Log
raw [info]: 1200x510p 1:1 @ 24000/1001 fps (cfr)x264 [info]: using SAR=1/1x264 [info]: using cpu capabilities: MMX2 SSE2Fast SSSE3 SSE4.2 AVX XOP FMA4 FMA3 LZCNT BMI1x264 [info]: profile High, level 4.1x264 [info]: frame I:1160 Avg QP:14.60 size: 83208 PSNR Mean Y:48.59 U:50.52 V:50.65 Avg:49.14 Global:48.62x264 [info]: frame P:39619 Avg QP:16.13 size: 27747 PSNR Mean Y:47.40 U:49.46 V:49.62 Avg:47.98 Global:47.18x264 [info]: frame B:96860 Avg QP:19.17 size: 9199 PSNR Mean Y:46.73 U:48.92 V:49.11 Avg:47.34 Global:46.48x264 [info]: consecutive B-frames: 6.6% 6.4% 14.3% 30.7% 17.2% 19.9% 2.6% 0.8% 0.4% 0.5% 0.2% 0.2% 0.3%x264 [info]: mb I I16..4: 4.8% 67.5% 27.7%x264 [info]: mb P I16..4: 2.5% 15.9% 4.2% P16..4: 27.0% 29.4% 11.5% 2.7% 0.3% skip: 6.5%x264 [info]: mb B I16..4: 0.6% 2.5% 0.5% B16..8: 30.8% 19.6% 3.2% direct: 4.3% skip:38.4% L0:41.4% L1:43.2% BI:15.4%x264 [info]: 8x8 transform intra:69.9% inter:54.5%x264 [info]: coded y,uvDC,uvAC intra: 77.5% 75.1% 55.4% inter: 18.0% 16.6% 6.8%x264 [info]: i16 v,h,dc,p: 12% 30% 3% 55%x264 [info]: i8 v,h,dc,ddl,ddr,vr,hd,vl,hu: 9% 20% 9% 8% 9% 8% 12% 9% 15%x264 [info]: i4 v,h,dc,ddl,ddr,vr,hd,vl,hu: 9% 23% 7% 7% 13% 9% 13% 7% 11%x264 [info]: i8c dc,h,v,p: 31% 38% 15% 16%x264 [info]: Weighted P-Frames: Y:2.7% UV:2.2%x264 [info]: ref P L0: 51.9% 9.5% 16.6% 6.5% 4.5% 3.7% 2.8% 1.6% 1.4% 1.3% 0.3% 0.0%x264 [info]: ref B L0: 72.1% 13.2% 6.0% 2.9% 2.1% 1.6% 1.3% 0.6% 0.3%x264 [info]: ref B L1: 91.3% 8.7%x264 [info]: SSIM Mean Y:0.9911087 (20.510db)x264 [info]: PSNR Mean Y:46.937 U:49.091 V:49.269 Avg:47.539 Global:46.684 kb/s:2908.16encoded 137639 frames, 9.50 fps, 2908.16 kb/s
GeneralUnique ID : 222598032460876854941541486176305134669 (0xA776D2563336DAF1A9750459B5C7BC4D)Complete name : Turbo.2013.BDRip.510p.dfcbit.mkvFormat : MatroskaFormat version : Version 2File size : 2.84 GiBDuration : 1h 35mnOverall bit rate : 4 255 KbpsEncoded date : UTC 2013-10-28 15:48:47Writing application : mkvmerge v4.0.0 ('The Stars were mine') built on Jun 6 2010 16:18:42Writing library : libebml v1.0.0 + libmatroska v1.0.0
VideoID : 1Format : AVCFormat/Info : Advanced Video CodecFormat profile : High@L4.1Format settings, CABAC : YesFormat settings, ReFrames : 10 framesCodec ID : V_MPEG4/ISO/AVCDuration : 1h 35mnBit rate : 2 908 KbpsWidth : 1 200 pixelsHeight : 510 pixelsDisplay aspect ratio : 2.35:1Frame rate mode : ConstantFrame rate : 23.976 fpsColor space : YUVChroma subsampling : 4:2:0Bit depth : 8 bitsScan type : ProgressiveBits/(Pixel*Frame) : 0.198Stream size : 1.94 GiB (66%)Title : NTSC, 1200x510 (2.353:1), BDRip 510p - tRuAVC & Multfilmy [DFCbit]Writing library : x264 core 138 r2358kMod 9e941d1Encoding settings : cabac=1 / ref=10 / deblock=1:-2:-1 / analyse=0x3:0x133 / me=umh / subme=11 / psy=1 / fade_compensate=0.00 / psy_rd=0.60:0.00 / mixed_ref=1 / me_range=32 / chroma_me=1 / trellis=2 / 8x8dct=1 / cqm=0 / deadzone=21,11 / fast_pskip=0 / chroma_qp_offset=-2 / threads=12 / lookahead_threads=3 / sliced_threads=0 / nr=0 / decimate=1 / interlaced=0 / bluray_compat=0 / constrained_intra=0 / bframes=12 / b_pyramid=2 / b_adapt=2 / b_bias=0 / direct=1 / weightb=1 / open_gop=0 / weightp=2 / keyint=250 / keyint_min=23 / scenecut=40 / intra_refresh=0 / rc_lookahead=70 / rc=crf / mbtree=0 / crf=17.2890 / qcomp=0.80 / qpmin=0 / qpmax=69 / qpstep=4 / vbv_maxrate=50000 / vbv_bufsize=62500 / crf_max=0.0 / nal_hrd=none / ip_ratio=1.40 / pb_ratio=1.30 / aq=3:0.90Language : EnglishDefault : YesForced : NoColor primaries : BT.709Transfer characteristics : BT.709Matrix coefficients : BT.709
Audio #1ID : 2Format : AC-3Format/Info : Audio Coding 3Mode extension : CM (complete main)Format settings, Endianness : BigCodec ID : A_AC3Duration : 1h 35mnBit rate mode : ConstantBit rate : 448 KbpsChannel(s) : 6 channelsChannel positions : Front: L C R, Side: L R, LFESampling rate : 48.0 KHzBit depth : 16 bitsCompression mode : LossyStream size : 307 MiB (11%)Title : AC3, 6 ch, 48 kHz, 448 kbps, Дубляж | Студия "НЕВАФИЛЬМ"Language : RussianDefault : YesForced : No
Audio #2ID : 3Format : AC-3Format/Info : Audio Coding 3Mode extension : CM (complete main)Format settings, Endianness : BigCodec ID : A_AC3Duration : 1h 35mnBit rate mode : ConstantBit rate : 448 KbpsChannel(s) : 6 channelsChannel positions : Front: L C R, Side: L R, LFESampling rate : 48.0 KHzBit depth : 16 bitsCompression mode : LossyStream size : 307 MiB (11%)Title : AC3, 6 ch, 48 kHz, 448 kbps, ДубляжLanguage : UkrainianDefault : NoForced : No
Audio #3ID : 4Format : AC-3Format/Info : Audio Coding 3Mode extension : CM (complete main)Format settings, Endianness : BigCodec ID : A_AC3Duration : 1h 35mnBit rate mode : ConstantBit rate : 448 KbpsChannel(s) : 6 channelsChannel positions : Front: L C R, Side: L R, LFESampling rate : 48.0 KHzBit depth : 16 bitsCompression mode : LossyStream size : 307 MiB (11%)Title : AC3 EX, 6 ch, 48 kHz, 448 kbps, OriginalLanguage : EnglishDefault : NoForced : No
Text #1ID : 5Format : UTF-8Codec ID : S_TEXT/UTF8Codec ID/Info : UTF-8 Plain TextTitle : SRT, FullLanguage : RussianDefault : NoForced : No
Text #2ID : 6Format : UTF-8Codec ID : S_TEXT/UTF8Codec ID/Info : UTF-8 Plain TextTitle : SRT, FullLanguage : UkrainianDefault : NoForced : No
Text #3ID : 7Format : UTF-8Codec ID : S_TEXT/UTF8Codec ID/Info : UTF-8 Plain TextTitle : SRT, FullLanguage : EnglishDefault : NoForced : No
Text #4ID : 8Format : UTF-8Codec ID : S_TEXT/UTF8Codec ID/Info : UTF-8 Plain TextTitle : SRT, (SDH)Language : EnglishDefault : NoForced : No
Menu00:00:00.000 : en:Chapter 100:03:29.626 : en:Chapter 200:06:39.858 : en:Chapter 300:08:34.222 : en:Chapter 400:10:13.863 : en:Chapter 500:13:25.096 : en:Chapter 600:17:15.785 : en:Chapter 700:21:53.354 : en:Chapter 800:25:42.708 : en:Chapter 900:28:24.494 : en:Chapter 1000:30:17.899 : en:Chapter 1100:34:20.892 : en:Chapter 1200:38:20.340 : en:Chapter 1300:40:45.109 : en:Chapter 1400:44:40.219 : en:Chapter 1500:47:40.941 : en:Chapter 1600:49:29.925 : en:Chapter 1700:53:28.956 : en:Chapter 1800:57:00.751 : en:Chapter 1900:59:38.825 : en:Chapter 2001:02:05.972 : en:Chapter 2101:05:50.780 : en:Chapter 2201:08:07.166 : en:Chapter 2301:13:08.801 : en:Chapter 2401:16:26.791 : en:Chapter 2501:19:48.450 : en:Chapter 2601:23:26.126 : en:Chapter 2701:26:29.726 : en:Chapter 28

Скриншоты

Скриншот с названием мультфильма
--BDRip-AVC


Source Blu-Ray

Релиз от групп | and | -Данный релиз не будет воспроизводиться на бытовых плеерах не поддерживающих MKV и H.264Обсуждение релизов в AVC формате || Свежие AVC рипы

_________________
Показать сообщения:    

Текущее время: Сегодня 03:57

Часовой пояс: GMT



Вы не можете начинать темы
Вы не можете отвечать на сообщения
Вы не можете редактировать свои сообщения
Вы не можете удалять свои сообщения
Вы не можете голосовать в опросах
Вы не можете прикреплять файлы к сообщениям
Вы не можете скачивать файлы