Важное объявление!
У Нас Все раздачи мультитрекерные, при нуле пиров в релизах, можете смело вставать на закачку!
 
Автор Сообщение

HUNTER

Стаж:
4 года 4 месяца
Сообщений:
56790

Репутация: 101

[+] [-]
Вне форума [Профиль] [ЛС]

-Тряпичный союз
-Жанр: комедия, драма
Год выпуска: 2015
Продолжительность: 01:38:40-Режиссёр: Михаил Местецкий-В ролях:Иван Янковский, Александр Паль, Василий Буткевич, Павел Чинарёв, Анастасия Пронина, Федор Лавров, Елена Нестерова, Владислав Ветров, Кирилл Кяро, Андрей Крыжний-Описание: Жизнь тихого подростка Вани меняется после знакомства с тремя очень странными парнями. Спортсмены, хулиганы, мечтатели, они называют себя «Тряпичный Союз» и верят, что изменят весь мир. Очарованный новой дружбой, Ваня поселяет парней у себя на даче и всеми силами пытается стать частью их «величайшей организации». Но у соседской девочки Саши свои планы на эту компанию.- -Качество видео:WEB-DL 720p
Формат видео: MKV
Видео:AVC, 1280x720, 24.000 fps, ~4040 Кbps avg, 0.183 bit/pixell
Аудио: 48 kHz, AC3 Dolby Digital, 3/2 (L,C,R,l,r) + LFE ch, ~384.00 kbps avg-

MediaInfo

General
Unique ID : 195673894428963646282528978315276449144 (0x93356BD7CC329E4AAA91B06DCED7F578)
Complete name : D:\Фильмы\TrapixniySoyuz2015\Тряпичный Союз 2015 WEB-DL.720p.mkv
Format : Matroska
Format version : Version 4 / Version 2
File size : 3.05 GiB
Duration : 1h 38mn
Overall bit rate : 4 425 Kbps
Encoded date : UTC 2016-03-27 18:39:24
Writing application : mkvmerge v8.3.0 ('Over the Horizon') 64bit
Writing library : libebml v1.3.1 + libmatroska v1.4.2
Video
ID : 1
Format : AVC
Format/Info : Advanced Video Codec
Format profile : High@L3.1
Format settings, CABAC : No
Format settings, ReFrames : 2 frames
Codec ID : V_MPEG4/ISO/AVC
Duration : 1h 38mn
Bit rate : 4 040 Kbps
Width : 1 280 pixels
Height : 720 pixels
Display aspect ratio : 16:9
Frame rate mode : Constant
Frame rate : 24.000 fps
Color space : YUV
Chroma subsampling : 4:2:0
Bit depth : 8 bits
Scan type : Progressive
Bits/(Pixel*Frame) : 0.183
Stream size : 2.78 GiB (91%)
Language : English
Default : Yes
Forced : No
Color range : Limited
Color primaries : BT.709
Transfer characteristics : BT.709
Matrix coefficients : BT.709
Audio
ID : 2
Format : AC-3
Format/Info : Audio Coding 3
Mode extension : CM (complete main)
Format settings, Endianness : Big
Codec ID : A_AC3
Duration : 1h 38mn
Bit rate mode : Constant
Bit rate : 384 Kbps
Channel(s) : 6 channels
Channel positions : Front: L C R, Side: L R, LFE
Sampling rate : 48.0 KHz
Frame rate : 31.250 fps (1536 spf)
Compression mode : Lossy
Stream size : 271 MiB (9%)
Language : Russian
Default : Yes
Forced : No
Menu
00:00:00.000 : en:Глава 1
00:05:41.416 : en:Глава 2
00:10:54.499 : en:Глава 3
00:16:25.207 : en:Глава 4
00:21:54.582 : en:Глава 5
00:27:59.415 : en:Глава 6
00:33:46.206 : en:Глава 7
00:39:19.747 : en:Глава 8
00:44:42.580 : en:Глава 9
00:51:07.496 : en:Глава 10
00:56:24.496 : en:Глава 11
01:02:09.329 : en:Глава 12
01:07:27.620 : en:Глава 13
01:13:03.953 : en:Глава 14
01:18:55.036 : en:Глава 15
01:25:27.869 : en:Глава 16
01:31:48.119 : en:Глава 17

-

Скриншот c названием фильма

-

_________________
Показать сообщения:    

Текущее время: Сегодня 16:35

Часовой пояс: GMT



Вы не можете начинать темы
Вы не можете отвечать на сообщения
Вы не можете редактировать свои сообщения
Вы не можете удалять свои сообщения
Вы не можете голосовать в опросах
Вы не можете прикреплять файлы к сообщениям
Вы не можете скачивать файлы