Важное объявление!
У Нас Все раздачи мультитрекерные, при нуле пиров в релизах, можете смело вставать на закачку!
 
Автор Сообщение

HUNTER

Стаж:
4 года 4 месяца
Сообщений:
56790

Репутация: 101

[+] [-]
Вне форума [Профиль] [ЛС]

Трудный ребенок / Problem Child
Страна: США
Студия: Universal Pictures
Жанр: комедия, семейный
Год выпуска: 1990
Продолжительность: 01:20:42
Перевод 1: Профессиональный (многоголосый закадровый) Пифагор
Перевод 2: Авторский (одноголосый закадровый) Володарский
Перевод 3: Авторский (одноголосый закадровый) Готлиб
Оригинальная аудиодорожка: Английская
Cубтитры: Русские, английские
Режиссер: Деннис Дуган / Dennis Dugan
В ролях: Джон Риттер, Джек Уорден, Майкл Оливер, Эми Ясбек, Гилберт Готтфрид, Майкл Ричардс, Питер Джурасик, Анна Мари Оллред, Роберт А. Андерсон, Адам Эндерли, Шарлотта Акин
Описание: Бен Хили и его жена Фло, стремящаяся пробиться в высшее общество, усыновляют Джуниора, прелестное и забавное семилетнее существо. Однако вскоре они убеждаются, что их приемный сын - маленькое чудовище, которое ухитряется превратить отдых в кемпинге, праздник по случаю дня рождения и даже бейсбольный матч в подлинный кошмар. Хотя и очень смешной. Но может быть, Джуниор - на самом деле ангелочек, пытающийся таким способом привлечь к себе внимание? Ищите ответ в этой развеселой картине, сатирически изображающей современную семейную жизнь...
Kinopoisk:
6.943 (24 915)
IMDb:
5.10 (18 378)
Сэмпл
Тип релиза: WEB-DL 720p
Контейнер: MKV
Видео: AVC H.264, 1 280х716 (16:9), 23.976 fps, 4 183 Kbps [PublicHD]
Аудио 1: 48 kHz, AC3 Dolby Digital, 2/0 (L,R) ch, ~192 kbps (MVO)
Аудио 2: 48 kHz, AC3 Dolby Digital, 2/0 (L,R) ch, ~192 kbps (AVO)
Аудио 3: 48 kHz, AC3 Dolby Digital, 2/0 (L,R) ch, ~192 kbps (AVO)
Аудио 4: 48 kHz, AC3 Dolby Digital, 2/0 (L,R) ch, ~192 kbps (ENG)
Формат субтитров: softsub (SRT)
-
MediaInfo
Цитата:
Цитата:

Complete name : Problem.child.1990.WEB-DL.MVO.2xAVO.ENG.SUB.RUS.ENG.mkv
Format : Matroska
Format version : Version 4 / Version 2
File size : 2.85 GiB
Duration : 1h 20mn
Overall bit rate : 5 051 Kbps
Encoded date : UTC 2014-05-10 15:28:04
Writing application : mkvmerge v6.4.1 ('Omega Point') built on Sep 16 2013 22:05:10
Writing library : libebml v1.3.0 + libmatroska v1.4.1
Video
ID : 1
Format : AVC
Format/Info : Advanced Video Codec
Format profile : High@L3.1
Format settings, CABAC : No
Format settings, ReFrames : 2 frames
Codec ID : V_MPEG4/ISO/AVC
Duration : 1h 20mn
Bit rate : 4 183 Kbps
Width : 1 280 pixels
Height : 716 pixels
Display aspect ratio : 16:9
Frame rate mode : Constant
Frame rate : 23.976 fps
Color space : YUV
Chroma subsampling : 4:2:0
Bit depth : 8 bits
Scan type : Progressive
Bits/(Pixel*Frame) : 0.190
Stream size : 2.36 GiB (83%)
Title : Трудный Ребенок
Language : English
Default : Yes
Forced : No
Color primaries : BT.709
Transfer characteristics : BT.709
Matrix coefficients : BT.709
Audio #1
ID : 2
Format : AC-3
Format/Info : Audio Coding 3
Mode extension : CM (complete main)
Format settings, Endianness : Big
Codec ID : A_AC3
Duration : 1h 20mn
Bit rate mode : Constant
Bit rate : 192 Kbps
Channel(s) : 2 channels
Channel positions : Front: L R
Sampling rate : 48.0 KHz
Bit depth : 16 bits
Compression mode : Lossy
Stream size : 111 MiB (4%)
Title : MVO
Default : Yes
Forced : No
Audio #2
ID : 3
Format : AC-3
Format/Info : Audio Coding 3
Mode extension : CM (complete main)
Format settings, Endianness : Big
Codec ID : A_AC3
Duration : 1h 20mn
Bit rate mode : Constant
Bit rate : 192 Kbps
Channel(s) : 2 channels
Channel positions : Front: L R
Sampling rate : 48.0 KHz
Bit depth : 16 bits
Compression mode : Lossy
Stream size : 111 MiB (4%)
Title : AVO (Володарский)
Default : No
Forced : No
Audio #3
ID : 4
Format : AC-3
Format/Info : Audio Coding 3
Mode extension : CM (complete main)
Format settings, Endianness : Big
Codec ID : A_AC3
Duration : 1h 20mn
Bit rate mode : Constant
Bit rate : 192 Kbps
Channel(s) : 2 channels
Channel positions : Front: L R
Sampling rate : 48.0 KHz
Bit depth : 16 bits
Compression mode : Lossy
Stream size : 111 MiB (4%)
Title : AVO (Готлиб)
Default : No
Forced : No
Audio #4
ID : 5
Format : AC-3
Format/Info : Audio Coding 3
Format profile : Dolby Digital
Mode extension : CM (complete main)
Format settings, Endianness : Big
Codec ID : A_AC3
Duration : 1h 20mn
Bit rate mode : Constant
Bit rate : 192 Kbps
Channel(s) : 2 channels
Channel positions : Front: L R
Sampling rate : 48.0 KHz
Bit depth : 16 bits
Compression mode : Lossy
Stream size : 111 MiB (4%)
Title : Original
Language : English
Default : No
Forced : No
Text #1
ID : 6
Format : UTF-8
Codec ID : S_TEXT/UTF8
Codec ID/Info : UTF-8 Plain Text
Title : Русские
Language : Russian
Default : No
Forced : No
Text #2
ID : 7
Format : UTF-8
Codec ID : S_TEXT/UTF8
Codec ID/Info : UTF-8 Plain Text
Title : Original
Language : English
Default : No
Forced : No
Menu
00:00:00.000 : en:00:00:00.000
00:09:56.000 : en:00:09:56.000
00:19:38.000 : en:00:19:38.000
00:27:22.000 : en:00:27:22.000
00:36:42.000 : en:00:36:42.000
00:45:48.000 : en:00:45:48.000
00:55:14.000 : en:00:55:14.000
01:05:14.000 : en:01:05:14.000
01:12:39.000 : en:01:12:39.000
01:16:10.000 : en:01:16:10.000
Скриншоты

_________________
Показать сообщения:    

Текущее время: Сегодня 15:41

Часовой пояс: GMT



Вы не можете начинать темы
Вы не можете отвечать на сообщения
Вы не можете редактировать свои сообщения
Вы не можете удалять свои сообщения
Вы не можете голосовать в опросах
Вы не можете прикреплять файлы к сообщениям
Вы не можете скачивать файлы