Важное объявление!
У Нас Все раздачи мультитрекерные, при нуле пиров в релизах, можете смело вставать на закачку!
 
Автор Сообщение

HUNTER

Стаж:
4 года 4 месяца
Сообщений:
56719

Репутация: 101

[+] [-]
Вне форума [Профиль] [ЛС]

Трудно быть Богом
Страна: Россия
Жанр: фантастика, драма
Год выпуска: 2013
Продолжительность: 02:50:07
Перевод: Оригинал [Лицензия]
Cубтитры: нет
Оригинальная аудиодорожка: русский
Режиссер: Алексей Герман
В ролях: Леонид Ярмольник, Юрий Цурило, Наталья Мотева, Александр Чутко, Евгений Герчаков, Валентин Голубенко, Пётр Меркурьев, Олег Ботин, Константин Быков, Юрий Думчев...
Описание: На планете, погружённой в глухое Средневековье, работают наблюдатели-земляне, которые пытаются бережно подправлять ход событий, не нарушая логическое развитие истории. Главный герой, дон Румата Эсторский, осознавая свою задачу сохранения нейтралитета, тем не менее, не выдерживает, когда в Арканаре (одном из городов планеты) захватывает власть «чёрное братство», свергнувшее господство «серых», столь же отвратительных, но не столь кровавых. Румата берётся за меч, чтобы покарать злодеев, и тем самым нарушает все правила и закономерности, вмешиваясь в чужой исторический процесс.
Бонусы: нет
Меню: русское, статичное, озвученное
Тип релиза: DVD5 (Сжатый)
Контейнер: DVD-Video
Видео: PAL 16:9 (720x576) 3 057 Kbps
Аудио: Russian (Dolby AC3, 6 ch) 448 Kbps

ИсходникДоп. информация
Обработано в DVDRemake Pro.
Видео сжималось 39%.
Сжималось связкой DVD Rebuilder + CCE/Procoder в 5 проходов.
Удалёно: заставки и предупреждение.
Лог кодирования
-----------------
[18:56:50] Phase I, PREPARATION started.
- DVD-RB v1.28.2
- AVISYNTH 2.5.8.0
- CCE 1.0.1.9 encoder selected.
- Source: TRUDNO.BYT.BOGOM.2013.DVD5
- VTS_02: 3 459 550 sectors.
-- Scanning and writing .D2V & .AVS files
-- Processed 255 197 frames.
-- Building .AVS and .ECL files
- Reduction Level for DVD-5: 61,1%
- Overall Bitrate : 3 100Kbs
- Space for Video : 3 862 340KB
- HIGH/LOW/TYPICAL Bitrates: 3 467/2 707/3 100 Kbs
[18:58:40] Phase I, PREPARATION completed in 2 minutes.
- WARNING: Viewer/Editor settings are over target.
[18:59:10] Phase II ENCODING started
- Creating M2V for VTS_02 segment 0
- Creating M2V for VTS_02 segment 1
- Creating M2V for VTS_02 segment 2
- Creating M2V for VTS_02 segment 3
- Creating M2V for VTS_02 segment 4
-- V02000400001005 no .M2V, retrying.
- Creating M2V for VTS_02 segment 4
-- V02000400001005 no .M2V, retrying.
- Creating M2V for VTS_02 segment 4
- Failed to create M2V: V02000400001005
- The encoder doesn't appear functional.
- Aborting...
[19:36:57] Phase II ENCODING started
- Creating M2V for VTS_02 segment 4
- Creating M2V for VTS_02 segment 5
- Creating M2V for VTS_02 segment 6
- Creating M2V for VTS_02 segment 7
- Creating M2V for VTS_02 segment 8
- Creating M2V for VTS_02 segment 9
- Creating M2V for VTS_02 segment 10
-- V02001000001011 no .M2V, retrying.
- Creating M2V for VTS_02 segment 10
- Creating M2V for VTS_02 segment 11
[20:44:47] Phase II ENCODING completed in 68 minutes.
[23:23:49] Phase III, REBUILD started.
- Copying IFO, BUP, and unaltered files...
- Processing VTS_02
- Reading/processing TMAP table...
- Rebuilding seg 0 VOBID 1 CELLID 1
- Rebuilding seg 1 VOBID 1 CELLID 2
- Rebuilding seg 2 VOBID 1 CELLID 3
- Rebuilding seg 3 VOBID 1 CELLID 4
- Rebuilding seg 4 VOBID 1 CELLID 5
- Rebuilding seg 5 VOBID 1 CELLID 6
- Rebuilding seg 6 VOBID 1 CELLID 7
- Rebuilding seg 7 VOBID 1 CELLID 8
- Rebuilding seg 8 VOBID 1 CELLID 9
- Rebuilding seg 9 VOBID 1 CELLID 10
- Rebuilding seg 10 VOBID 1 CELLID 11
- Rebuilding seg 11 VOBID 1 CELLID 12
- Updating NAVPACKS for VOBID_01
- Updated VTS_C_ADT.
- Updated VTS_VOBU_ADMAP.
- Updated IFO: VTS_02_0.IFO
- Updating TMAP table...
- Correcting VTS Sectors...
[23:35:13] Phase III, REBUILD completed in 12 minutes.
Done.
MediaInfo
General
Complete name : D:\_Video\Trudno.byt.Bogom.2013.DVD5\VIDEO_TS\VTS_02_1.VOB
Format : MPEG-PS
File size : 1 024 MiB
Duration : 40mn 2s
Overall bit rate : 3 576 Kbps
Video
ID : 224 (0xE0)
Format : MPEG Video
Format version : Version 2
Format profile : Main@Main
Format settings, BVOP : Yes
Format settings, Matrix : Custom
Duration : 40mn 2s
Bit rate mode : Variable
Bit rate : 3 057 Kbps
Maximum bit rate : 8 444 Kbps
Width : 720 pixels
Height : 576 pixels
Display aspect ratio : 16:9
Frame rate : 25.000 fps
Standard : PAL
Color space : YUV
Chroma subsampling : 4:2:0
Bit depth : 8 bits
Scan type : Progressive
Scan order : Bottom Field First
Compression mode : Lossy
Bits/(Pixel*Frame) : 0.295
Stream size : 875 MiB (85%)
Audio
ID : 189 (0xBD)-128 (0x80)
Format : AC-3
Format/Info : Audio Coding 3
Mode extension : CM (complete main)
Muxing mode : DVD-Video
Duration : 40mn 1s
Bit rate mode : Constant
Bit rate : 448 Kbps
Channel(s) : 6 channels
Channel positions : Front: L C R, Side: L R, LFE
Sampling rate : 48.0 KHz
Bit depth : 16 bits
Compression mode : Lossy
Stream size : 128 MiB (13%)
Menu
DVDInfo
Title: Bob
Size: 4.37 Gb ( 4 579 436 KBytes ) - DVD-5
Enabled regions: 1, 2, 3, 4, 5, 6, 7, 8
VTS_01 :
Play Length:
Video: PAL 4:3 (720x576) VBR
Audio:
Russian (Dolby AC3, 6 ch)
English (Dolby AC3, 6 ch)
English (Dolby AC3, 6 ch)
VTS_02 :
Play Length: 02:50:07
Video: PAL 16:9 (720x576) VBR, Auto Pan&Scan, Auto Letterboxed
Audio:
Russian (Dolby AC3, 6 ch)
Cкриншот финального проектаСкриншоты менюСкриншотыРаздача от группы:

_________________
Показать сообщения:    

Текущее время: Сегодня 00:01

Часовой пояс: GMT



Вы не можете начинать темы
Вы не можете отвечать на сообщения
Вы не можете редактировать свои сообщения
Вы не можете удалять свои сообщения
Вы не можете голосовать в опросах
Вы не можете прикреплять файлы к сообщениям
Вы не можете скачивать файлы