Важное объявление!
У Нас Все раздачи мультитрекерные, при нуле пиров в релизах, можете смело вставать на закачку!
 
Автор Сообщение

HUNTER

Стаж:
4 года 4 месяца
Сообщений:
56848

Репутация: 101

[+] [-]
Вне форума [Профиль] [ЛС]

ТРОН: Восстание / TRON: Uprising
-Год выпуска: 2012
Страна: США
Жанр: боевик, приключения
Продолжительность: ~00:30:00
Перевод: Профессиональный (дублированный) [Disney Channel]
Субтитры: присутствуют (русские, английские)-В ролях: Элайджа Вуд, Лэнс Хенриксен, Брюс Бокслейтнер, Эммануэль Шрики, Мэнди Мур, Натан Кордри, Реджинальд ВелДжонсон, Пол Рубенс, Тришиа Хелфер, Чарли Бин
Режиссёр: Чарли Бин / Charlie Bean-Описание: Действие будет разворачиваться между событиями первого и второго фильмов и расскажет о мрачном этапе в развитии мира Трона: этапе, когда Клу поднял бунт против Пользователей.-Качество: HDTVRip 720p
Формат: MKV
Видео кодек: AVC
Аудио кодек: MP3
Видео: 1280x718, 3930 Кбит/сек at 23.976 fps
Аудио1: Русский: 320 Кбит/сек, 2 каналы, 48.0 КГц
Аудио2: Оригинал: 320 Кбит/сек, 2 каналы, 48.0 КГц

MediaInfo

Ц Цитата: General
Unique ID : 254372736134237036897072654416973454196 (0xBF5E682E3F13DE808581AFDEFBF4DB74)
Complete name : C:\Фильмы\ТРОН. Восстание\TRON.vosstanie.(1.sezon.1.seriya.iz.18).2012.x264.WEB-DL.720p.mkv
Format : Matroska
Format version : Version 2
File size : 1.08 GiB
Duration : 33mn 0s
Overall bit rate : 4 666 Kbps
Movie name : Tron.Uprising.S01E01.Becks.Beginning.720p.WEB.DL.DD5.1.H264.NTb.mkv 18582
Encoded date : UTC 2012-11-06 10:39:00
Writing application : mkvmerge v5.7.0 ('The Whirlwind') built on Jul 8 2012 20:08:51
Writing library : libebml v1.2.3 + libmatroska v1.3.0
Video
ID : 1
Format : AVC
Format/Info : Advanced Video Codec
Format profile : [url=mailto:High@L3.1]High@L3.1[/url]
Format settings, CABAC : No
Format settings, ReFrames : 2 frames
Codec ID : V_MPEG4/ISO/AVC
Duration : 32mn 59s
Bit rate : 3 934 Kbps
Width : 1 280 pixels
Height : 718 pixels
Display aspect ratio : 16:9
Frame rate : 23.976 fps
Color space : YUV
Chroma subsampling : 4:2:0
Bit depth : 8 bits
Scan type : Progressive
Bits/(Pixel*Frame) : 0.179
Stream size : 928 MiB (84%)
Language : English
Color primaries : BT.709-5, BT.1361, IEC 61966-2-4, SMPTE RP177
Transfer characteristics : BT.709-5, BT.1361
Matrix coefficients : BT.709-5, BT.1361, IEC 61966-2-4 709, SMPTE RP177
Audio #1
ID : 2
Format : MPEG Audio
Format version : Version 1
Format profile : Layer 3
Mode : Joint stereo
Codec ID : A_MPEG/L3
Codec ID/Hint : MP3
Duration : 33mn 0s
Bit rate mode : Constant
Bit rate : 320 Kbps
Channel(s) : 2 channels
Sampling rate : 48.0 KHz
Compression mode : Lossy
Stream size : 75.5 MiB (7%)
Title : Russian
Language : Russian
Audio #2
ID : 3
Format : MPEG Audio
Format version : Version 1
Format profile : Layer 3
Mode : Joint stereo
Codec ID : A_MPEG/L3
Codec ID/Hint : MP3
Duration : 33mn 0s
Bit rate mode : Constant
Bit rate : 320 Kbps
Channel(s) : 2 channels
Sampling rate : 48.0 KHz
Compression mode : Lossy
Stream size : 75.5 MiB (7%)
Title : English
Language : English
Text #1
ID : 4
Format : ASS
Codec ID : S_TEXT/ASS
Codec ID/Info : Advanced Sub Station Alpha
Compression mode : Lossless
Title : Russian
Language : Russian
Text #2
ID : 5
Format : ASS
Codec ID : S_TEXT/ASS
Codec ID/Info : Advanced Sub Station Alpha
Compression mode : Lossless
Title : English
Language : English
-

Рейтинг

Рейтинг:

Скриншоты


_________________
Показать сообщения:    

Текущее время: Сегодня 06:59

Часовой пояс: GMT



Вы не можете начинать темы
Вы не можете отвечать на сообщения
Вы не можете редактировать свои сообщения
Вы не можете удалять свои сообщения
Вы не можете голосовать в опросах
Вы не можете прикреплять файлы к сообщениям
Вы не можете скачивать файлы
Наши партнеры: интернет магазин Ивановского трикотажа textilla.ru