Важное объявление!
У Нас Все раздачи мультитрекерные, при нуле пиров в релизах, можете смело вставать на закачку!
 
Автор Сообщение

HUNTER

Стаж:
4 года 4 месяца
Сообщений:
56790

Репутация: 101

[+] [-]
Вне форума [Профиль] [ЛС]

Тролли: Лучшие друзья на всю жизнь / Trollz: Best Friends for Life-
Страна: США
Жанр: Мультфильм, семейный
Год выпуска: 2005
Продолжительность: 01:06:36
Перевод: Профессиональный (многоголосый закадровый)- со вставками Гранкина
Перевод 2: Авторский (одноголосый закадровый) - Евгений Гранкин
Русские субтитры: Нет-Режиссёр: Карен Хайден / Karen Hyden.-Описание: Знакомьтесь: Аметист, Рубин, Топаз, Оникс и Сапфир - пять неразлучных подружек, настоящих волшебниц. И хотя все они тролли, это не мешает им жить обычной жизнью: общаться, ходить в школу, встречаться с друзьями, посещать парикмахерскую и кафе. А свои магические силы они используют, чтобы сделать эту жизнь более захватывающей. Но однажды Аметисту приснился сон, в котором подруги перестали с ней дружить, и с этого начались удивительные приключения.-Благодарности:
multmir за предоставление оригинального DVD диска;
Lexa1988-L1 за предоставление русской озвучки;
grandmajor за своевременную помощь в переводе с английского;
Bobropandavar реавторинг DVD
xfiles За многоголоску и английские субтитры, звук писал с канала "Мультимания". Там этот мульт транслируют как сериал, а здесь у нас склейка из сериала в полнометражку с добавленными фрагментами. Потому вставки и получились.-Релиз: -Семпл-Качество: DVDRip
Формат: AVI
Видео:704x528 (1.33:1), 25 fps, XviD build 64 ~2326 kbps avg, 0.25 bit/pixel
Аудио : 48 kHz, AC3 Dolby Digital, 2/0 (L,R) ch, ~192 kbps - Mvo
Аудио : 48 kHz, AC3 Dolby Digital, 2/0 (L,R) ch, ~192 kbps - Avo
Аудио : 48 kHz, AC3 Dolby Digital, 2/0 (L,R) ch, ~224 kbps - Eng
Субтитры: Английские
-

MI

Format : AVIFormat/Info : Audio Video InterleaveFile size : 1.37 GiBDuration : 1h 6mnOverall bit rate : 2 956 KbpsWriting application : VirtualDubMod 1.5.10.3 | www.virtualdub-fr.org || (build 2550/release)Writing library : VirtualDubMod build 2550/release
VideoID : 0Format : MPEG-4 VisualFormat profile : Advanced Simple@L5Format settings, BVOP : 2Format settings, QPel : NoFormat settings, GMC : No warppointsFormat settings, Matrix : CustomCodec ID : XVIDCodec ID/Hint : XviDDuration : 1h 6mnBit rate : 2 328 KbpsWidth : 704 pixelsHeight : 528 pixelsDisplay aspect ratio : 4:3Frame rate : 25.000 fpsColor space : YUVChroma subsampling : 4:2:0Bit depth : 8 bitsScan type : ProgressiveCompression mode : LossyBits/(Pixel*Frame) : 0.251Stream size : 1.08 GiB (79%)Writing library : XviD 64
Audio #1ID : 1Format : AC-3Format/Info : Audio Coding 3Mode extension : CM (complete main)Format settings, Endianness : BigCodec ID : 2000Duration : 1h 6mnBit rate mode : ConstantBit rate : 192 KbpsChannel(s) : 2 channelsChannel positions : Front: L RSampling rate : 48.0 KHzBit depth : 16 bitsCompression mode : LossyStream size : 91.4 MiB (6%)Alignment : Split accross interleavesInterleave, duration : 40 ms (1.00 video frame)Interleave, preload duration : 500 ms
Audio #2ID : 2Format : AC-3Format/Info : Audio Coding 3Mode extension : CM (complete main)Format settings, Endianness : BigCodec ID : 2000Duration : 1h 6mnBit rate mode : ConstantBit rate : 192 KbpsChannel(s) : 2 channelsChannel positions : Front: L RSampling rate : 48.0 KHzBit depth : 16 bitsCompression mode : LossyStream size : 91.4 MiB (6%)Alignment : Split accross interleavesInterleave, duration : 40 ms (1.00 video frame)Interleave, preload duration : 500 ms
Audio #3ID : 3Format : AC-3Format/Info : Audio Coding 3Mode extension : CM (complete main)Format settings, Endianness : BigCodec ID : 2000Duration : 1h 6mnBit rate mode : ConstantBit rate : 224 KbpsChannel(s) : 2 channelsChannel positions : Front: L RSampling rate : 48.0 KHzBit depth : 16 bitsCompression mode : LossyStream size : 107 MiB (8%)Alignment : Split accross interleavesInterleave, duration : 40 ms (1.00 video frame)Interleave, preload duration : 500 ms

_________________
Показать сообщения:    

Текущее время: Сегодня 15:32

Часовой пояс: GMT



Вы не можете начинать темы
Вы не можете отвечать на сообщения
Вы не можете редактировать свои сообщения
Вы не можете удалять свои сообщения
Вы не можете голосовать в опросах
Вы не можете прикреплять файлы к сообщениям
Вы не можете скачивать файлы