Важное объявление!
У Нас Все раздачи мультитрекерные, при нуле пиров в релизах, можете смело вставать на закачку!
 
Автор Сообщение

димитри37

Стаж:
3 года 9 месяцев
Сообщений:
1237

Репутация: 127

[+] [-]
Вне форума [Профиль] [ЛС]

Жанр: Криминальная драмаГод выпуска: 1972 / 1974 / 1990Продолжительность: 02:57:09 / 03:22:06 / 02:50:15Режиссёр: Френсис Форд Коппола«Настоящая сила не может быть дана, она может быть взята...»

Крестный отец / The Godfather: Part I (1972) BDRip 1080p


Информация о фильме
Название: Крестный отец
Оригинальное название: The Godfather: Part I
Год выхода: 1972
Жанр: Криминальная драма
Режиссер: Френсис Форд Коппола
В ролях: Марлон Брандо, Аль Пачино, Джеймс Каан, Ричард Кастеллано, Дайэн Китон, Талия Шайр, Роберт Дювалл, Стерлинг Хэйден, Ричард Конте, Джон Марли, Аль Леттьери
О фильме:
Криминальная сага, повествующая о нью-йоркской сицилийской мафиозной семье Корлеоне. Фильм охватывает период 1945—1955 годов. Глава семьи, Дон Вито Корлеоне, выдаёт замуж свою дочь. В это время со Второй мировой войны возвращается его любимый сын Майкл. Майкл, герой войны, гордость семьи, не выражает желания заняться жестоким семейным бизнесом. Дон Корлеоне ведёт дела по старым правилам, но наступают иные времена, и появляются люди, желающие изменить сложившиеся порядки. На Дона Корлеоне совершается покушение. Он выживает, но временно теряет возможность управлять делами семьи. Благополучие и даже выживание семьи поставлено под угрозу. И здесь Майклу приходится вмешаться. Ради семьи он совершает двойное убийство, что вынуждает его некоторое время скрываться в Италии. Там он женится, но при покушении на него погибает его молодая жена. Майкл возвращается в Нью-Йорк и всерьёз начинает заниматься делами семьи, сам становясь в итоге её главой.

Выпущено: США
Студия: Paramount Pictures
Продолжительность: 02:57:09
Перевод: Профессиональный многоголосый закадровый
Файл
Кодек: x264
Качество: BDRip (источник: Blu-ray Disc)
Видео: 1920x1080 (1,78:1), 23.976 fps, 9108 kbps
Аудио #1: AC-3, 2 ch, 224 kbps (Rus)
Субтитры: Русские, Английские
Скачать: семпл
Скриншоты

MI

Общее
Уникальный идентификатор : 202103846099149963243288740076594408478 (0x980BC8EFB801B309A8D8291026A02C1E)
Полное имя : E:The Godfather Collection. The Coppola RestorationThe.Godfather.Part.I.1972.BDRip.1080p.Rus.mkv
Формат : Matroska
Версия формата : Version 4 / Version 2
Размер файла : 11,5 Гбайт
Продолжительность : 2 ч. 57 м.
Общий поток : 9326 Кбит/сек
Название фильма : Крестный отец / The Godfather: Part I (1972)
Дата кодирования : UTC 2013-06-19 10:43:19
Программа кодирования : mkvmerge v6.2.0 ('Promised Land') built on Apr 28 2013 12:22:01
Библиотека кодирования : libebml v1.3.0 + libmatroska v1.4.0
Видео
Идентификатор : 1
Формат : AVC
Формат/Информация : Advanced Video Codec
Профиль формата : High@L4.1
Параметр CABAC формата : Да
Параметр ReFrames формата : 4 кадра
Идентификатор кодека : V_MPEG4/ISO/AVC
Продолжительность : 2 ч. 57 м.
Битрейт : 9108 Кбит/сек
Ширина : 1920 пикселей
Высота : 1080 пикселей
Соотношение сторон : 16:9
Режим частоты кадров : Постоянный
Частота кадров : 23,976 кадра/сек
Цветовое пространство : YUV
Субдискретизация насыщенности : 4:2:0
Битовая глубина : 8 бит
Тип развёртки : Прогрессивная
Бит/(Пиксели*Кадры) : 0.183
Размер потока : 11,0 Гбайт (96%)
Заголовок : Release by N1NT3NDO
Библиотека кодирования : x264 core 130 r2273 b3065e6
Настройки программы : cabac=1 / ref=4 / deblock=1:0:0 / analyse=0x3:0x113 / me=umh / subme=10 / psy=1 / psy_rd=1.00:0.00 / mixed_ref=1 / me_range=32 / chroma_me=1 / trellis=2 / 8x8dct=1 / cqm=0 / deadzone=21,11 / fast_pskip=0 / chroma_qp_offset=-2 / threads=12 / lookahead_threads=1 / sliced_threads=0 / nr=0 / decimate=0 / interlaced=0 / bluray_compat=0 / constrained_intra=0 / bframes=5 / b_pyramid=2 / b_adapt=2 / b_bias=0 / direct=2 / weightb=1 / open_gop=0 / weightp=2 / keyint=240 / keyint_min=23 / scenecut=40 / intra_refresh=0 / rc=2pass / mbtree=0 / bitrate=9108 / ratetol=1.0 / qcomp=0.60 / qpmin=0 / qpmax=69 / qpstep=4 / cplxblur=20.0 / qblur=0.5 / ip_ratio=1.40 / pb_ratio=1.30 / aq=1:0.70
Язык : English
Default : Да
Forced : Нет
Аудио
Идентификатор : 2
Формат : AC-3
Формат/Информация : Audio Coding 3
Расширение режима : CM (complete main)
Параметр Endianness формата : Big
Идентификатор кодека : A_AC3
Продолжительность : 2 ч. 57 м.
Вид битрейта : Постоянный
Битрейт : 224 Кбит/сек
Каналы : 2 канала
Расположение каналов : Front: L R
Частота : 48,0 КГц
Битовая глубина : 16 бит
Метод сжатия : С потерями
Размер потока : 284 Мбайт (2%)
Заголовок : Rus
Язык : Russian
Default : Да
Forced : Нет
Текст #1
Идентификатор : 3
Формат : UTF-8
Идентификатор кодека : S_TEXT/UTF8
Идентификатор кодека/Информация : UTF-8 Plain Text
Заголовок : Rus
Язык : Russian
Default : Нет
Forced : Нет
Текст #2
Идентификатор : 4
Формат : UTF-8
Идентификатор кодека : S_TEXT/UTF8
Идентификатор кодека/Информация : UTF-8 Plain Text
Заголовок : Eng
Язык : English
Default : Нет
Forced : Нет
Меню
00:00:00.000 : :Chapter 01
00:07:30.783 : :Chapter 02
00:18:03.624 : :Chapter 03
00:27:03.455 : :Chapter 04
00:34:20.183 : :Chapter 05
00:40:17.748 : :Chapter 06
00:48:52.304 : :Chapter 07
00:58:18.328 : :Chapter 08
01:08:44.578 : :Chapter 09
01:15:49.002 : :Chapter 10
01:30:00.686 : :Chapter 11
01:37:06.862 : :Chapter 12
01:46:18.163 : :Chapter 13
01:49:30.188 : :Chapter 14
01:53:57.664 : :Chapter 15
02:03:21.310 : :Chapter 16
02:06:37.256 : :Chapter 17
02:13:28.125 : :Chapter 18
02:19:47.462 : :Chapter 19
02:25:56.706 : :Chapter 20
02:36:56.031 : :Chapter 21
02:44:43.540 : :Chapter 22
02:53:05.750 : :Chapter 23

Крестный отец 2 / The Godfather: Part II (1974) BDRip 1080p


Информация о фильме
Название: Крестный отец 2
Оригинальное название: The Godfather: Part II
Год выхода: 1974
Жанр: Криминальная драма
Режиссер: Френсис Форд Коппола
В ролях: Аль Пачино, Роберт Дюваль, Дайан Китон, Роберт Де Ниро, Джон Казале, Талия Шайр, Ли Страсберг, Майкл В. Гаццо, Г.Д. Спрэдлин, Ричард Брайт
О фильме:
В центре драмы представители нового поколения гангстерского клана - дона Корлеоне и его сына, для которых не существует моральных преград на пути достижения поставленых целей. Они превращают мафию, построенную по патриархальным, еще сицилийским законам, в весьма прагматичную, жесткую корпорацию, плавно интегрирующуюся в большой бизнес Америки.

Выпущено: США
Студия: Paramount Pictures
Продолжительность: 03:22:06
Перевод: Профессиональный многоголосый закадровый
Файл
Кодек: x264
Качество: BDRip (источник: Blu-ray Disc)
Видео: 1920x1080 (1,78:1), 23.976 fps, 7959 kbps
Аудио #1: AC-3, 2 ch, 224 kbps (Rus)
Субтитры: Русские, Английские
Скачать: семпл
Скриншоты

MI

Общее
Уникальный идентификатор : 184082205387100726723361401383473580537 (0x8A7CF172D3F63AE5AD80AB5AB07309F9)
Полное имя : E:The Godfather Collection. The Coppola RestorationThe.Godfather.Part.II.1974.BDRip.1080p.Rus.mkv
Формат : Matroska
Версия формата : Version 4 / Version 2
Размер файла : 11,5 Гбайт
Продолжительность : 3 ч. 22 м.
Общий поток : 8169 Кбит/сек
Название фильма : Крестный отец / The Godfather: Part I (1972)
Дата кодирования : UTC 2013-06-23 09:40:54
Программа кодирования : mkvmerge v6.2.0 ('Promised Land') built on Apr 28 2013 12:22:01
Библиотека кодирования : libebml v1.3.0 + libmatroska v1.4.0
Видео
Идентификатор : 1
Формат : AVC
Формат/Информация : Advanced Video Codec
Профиль формата : High@L4.1
Параметр CABAC формата : Да
Параметр ReFrames формата : 4 кадра
Идентификатор кодека : V_MPEG4/ISO/AVC
Продолжительность : 3 ч. 22 м.
Битрейт : 7959 Кбит/сек
Ширина : 1920 пикселей
Высота : 1080 пикселей
Соотношение сторон : 16:9
Режим частоты кадров : Постоянный
Частота кадров : 23,976 кадра/сек
Цветовое пространство : YUV
Субдискретизация насыщенности : 4:2:0
Битовая глубина : 8 бит
Тип развёртки : Прогрессивная
Бит/(Пиксели*Кадры) : 0.160
Размер потока : 11,0 Гбайт (95%)
Заголовок : Release by N1NT3NDO
Библиотека кодирования : x264 core 130 r2273 b3065e6
Настройки программы : cabac=1 / ref=4 / deblock=1:0:0 / analyse=0x3:0x113 / me=umh / subme=10 / psy=1 / psy_rd=1.00:0.00 / mixed_ref=1 / me_range=32 / chroma_me=1 / trellis=2 / 8x8dct=1 / cqm=0 / deadzone=21,11 / fast_pskip=0 / chroma_qp_offset=-2 / threads=12 / lookahead_threads=1 / sliced_threads=0 / nr=0 / decimate=0 / interlaced=0 / bluray_compat=0 / constrained_intra=0 / bframes=5 / b_pyramid=2 / b_adapt=2 / b_bias=0 / direct=2 / weightb=1 / open_gop=0 / weightp=2 / keyint=240 / keyint_min=23 / scenecut=40 / intra_refresh=0 / rc=2pass / mbtree=0 / bitrate=7959 / ratetol=1.0 / qcomp=0.60 / qpmin=0 / qpmax=69 / qpstep=4 / cplxblur=20.0 / qblur=0.5 / ip_ratio=1.40 / pb_ratio=1.30 / aq=1:0.70
Язык : English
Default : Да
Forced : Нет
Аудио
Идентификатор : 2
Формат : AC-3
Формат/Информация : Audio Coding 3
Расширение режима : CM (complete main)
Параметр Endianness формата : Big
Идентификатор кодека : A_AC3
Продолжительность : 3 ч. 22 м.
Вид битрейта : Постоянный
Битрейт : 224 Кбит/сек
Каналы : 2 канала
Расположение каналов : Front: L R
Частота : 48,0 КГц
Битовая глубина : 16 бит
Метод сжатия : С потерями
Размер потока : 324 Мбайт (3%)
Заголовок : Rus
Язык : Russian
Default : Да
Forced : Нет
Текст #1
Идентификатор : 3
Формат : UTF-8
Идентификатор кодека : S_TEXT/UTF8
Идентификатор кодека/Информация : UTF-8 Plain Text
Заголовок : Rus
Язык : Russian
Default : Нет
Forced : Нет
Текст #2
Идентификатор : 4
Формат : UTF-8
Идентификатор кодека : S_TEXT/UTF8
Идентификатор кодека/Информация : UTF-8 Plain Text
Заголовок : Eng
Язык : English
Default : Нет
Forced : Нет
Меню
00:00:00.000 : :Chapter 01
00:05:00.000 : :Chapter 02
00:10:00.000 : :Chapter 03
00:15:00.000 : :Chapter 04
00:20:00.000 : :Chapter 05
00:25:00.000 : :Chapter 06
00:30:00.000 : :Chapter 07
00:35:00.000 : :Chapter 08
00:40:00.000 : :Chapter 09
00:45:00.000 : :Chapter 10
00:50:00.000 : :Chapter 11
00:55:00.000 : :Chapter 12
01:00:00.000 : :Chapter 13
01:05:00.000 : :Chapter 14
01:10:00.000 : :Chapter 15
01:15:00.000 : :Chapter 16
01:20:00.000 : :Chapter 17
01:25:00.000 : :Chapter 18
01:30:00.000 : :Chapter 19
01:35:00.000 : :Chapter 20
01:40:00.000 : :Chapter 21
01:45:00.000 : :Chapter 22
01:50:00.000 : :Chapter 23
01:55:00.000 : :Chapter 24
02:00:00.000 : :Chapter 25
02:05:00.000 : :Chapter 26
02:10:00.000 : :Chapter 27
02:15:00.000 : :Chapter 28
02:20:00.000 : :Chapter 29
02:25:00.000 : :Chapter 30
02:30:00.000 : :Chapter 31
02:35:00.000 : :Chapter 32
02:40:00.000 : :Chapter 33
02:45:00.000 : :Chapter 34
02:50:00.000 : :Chapter 35
02:55:00.000 : :Chapter 36
03:00:00.000 : :Chapter 37
03:05:00.000 : :Chapter 38
03:10:00.000 : :Chapter 39
03:15:00.000 : :Chapter 40
03:20:00.000 : :Chapter 41

Крестный отец 3 / The Godfather: Part III (1990) BDRip 1080p


Информация о фильме
Название: Крестный отец 3
Оригинальное название: The Godfather: Part III
Год выхода: 1990
Жанр: Криминальная драма
Режиссер: Френсис Форд Коппола
В ролях: Аль Пачино, Дайан Китон, Талия Шайр, Энди Гарсиа, Эли Уоллах, Джо Мантенья, Джордж Хэмилтон, Бриджет Фонда, София Коппола, Раф Валлоне
О фильме:
Заключительная часть знаменитой гангстерской эпопеи, в которой продолжается рассказ о делах «семьи» дона Корлеоне. Через двадцать лет после событий, описанных в предыдущей картине, Майкл Корлеоне решает заняться легальным бизнесом. Однако противодействие внутри клана заставляет его вспомнить об испытанных кровавых методах общения с противником, что приводит к трагическому итогу.

Выпущено: США
Студия: Paramount Pictures
Продолжительность: 02:50:15
Перевод: Профессиональный многоголосый закадровый
Файл
Кодек: x264
Качество: BDRip (источник: Blu-ray Disc)
Видео: 1920x1080 (1,78:1), 23.976 fps, 9484 kbps
Аудио #1: AC-3, 2 ch, 224 kbps (Rus)
Субтитры: Русские, Английские
Скачать: семпл
Скриншоты

MI

Общее
Уникальный идентификатор : 181996811147416369686808640587432396487 (0x88EB4F93068191758107F1647F7706C7)
Полное имя : E:The Godfather Collection. The Coppola RestorationThe.Godfather.Part.III.1990.BDRip.1080p.Rus.mkv
Формат : Matroska
Версия формата : Version 4 / Version 2
Размер файла : 11,5 Гбайт
Продолжительность : 2 ч. 50 м.
Общий поток : 9704 Кбит/сек
Название фильма : Крестный отец 3 / The Godfather: Part III (1990)
Дата кодирования : UTC 2013-06-24 09:25:35
Программа кодирования : mkvmerge v6.2.0 ('Promised Land') built on Apr 28 2013 12:22:01
Библиотека кодирования : libebml v1.3.0 + libmatroska v1.4.0
Видео
Идентификатор : 1
Формат : AVC
Формат/Информация : Advanced Video Codec
Профиль формата : High@L4.1
Параметр CABAC формата : Да
Параметр ReFrames формата : 4 кадра
Идентификатор кодека : V_MPEG4/ISO/AVC
Продолжительность : 2 ч. 50 м.
Битрейт : 9484 Кбит/сек
Ширина : 1920 пикселей
Высота : 1080 пикселей
Соотношение сторон : 16:9
Режим частоты кадров : Постоянный
Частота кадров : 23,976 кадра/сек
Цветовое пространство : YUV
Субдискретизация насыщенности : 4:2:0
Битовая глубина : 8 бит
Тип развёртки : Прогрессивная
Бит/(Пиксели*Кадры) : 0.191
Размер потока : 11,0 Гбайт (96%)
Заголовок : Release by N1NT3NDO
Библиотека кодирования : x264 core 130 r2273 b3065e6
Настройки программы : cabac=1 / ref=4 / deblock=1:0:0 / analyse=0x3:0x113 / me=umh / subme=10 / psy=1 / psy_rd=1.00:0.00 / mixed_ref=1 / me_range=32 / chroma_me=1 / trellis=2 / 8x8dct=1 / cqm=0 / deadzone=21,11 / fast_pskip=0 / chroma_qp_offset=-2 / threads=12 / lookahead_threads=1 / sliced_threads=0 / nr=0 / decimate=0 / interlaced=0 / bluray_compat=0 / constrained_intra=0 / bframes=5 / b_pyramid=2 / b_adapt=2 / b_bias=0 / direct=2 / weightb=1 / open_gop=0 / weightp=2 / keyint=240 / keyint_min=23 / scenecut=40 / intra_refresh=0 / rc=2pass / mbtree=0 / bitrate=9484 / ratetol=1.0 / qcomp=0.60 / qpmin=0 / qpmax=69 / qpstep=4 / cplxblur=20.0 / qblur=0.5 / ip_ratio=1.40 / pb_ratio=1.30 / aq=1:0.70
Язык : English
Default : Да
Forced : Нет
Аудио
Идентификатор : 2
Формат : AC-3
Формат/Информация : Audio Coding 3
Расширение режима : CM (complete main)
Параметр Endianness формата : Big
Идентификатор кодека : A_AC3
Продолжительность : 2 ч. 50 м.
Вид битрейта : Постоянный
Битрейт : 224 Кбит/сек
Каналы : 2 канала
Расположение каналов : Front: L R
Частота : 48,0 КГц
Битовая глубина : 16 бит
Метод сжатия : С потерями
Размер потока : 273 Мбайт (2%)
Заголовок : Rus
Язык : Russian
Default : Да
Forced : Нет
Текст #1
Идентификатор : 3
Формат : UTF-8
Идентификатор кодека : S_TEXT/UTF8
Идентификатор кодека/Информация : UTF-8 Plain Text
Заголовок : Rus
Язык : Russian
Default : Нет
Forced : Нет
Текст #2
Идентификатор : 4
Формат : ASS
Идентификатор кодека : S_TEXT/ASS
Идентификатор кодека/Информация : Advanced Sub Station Alpha
Метод сжатия : Без потерь
Заголовок : Eng
Язык : English
Default : Нет
Forced : Нет
Меню
00:00:00.000 : :Chapter 01
00:05:00.000 : :Chapter 02
00:10:00.000 : :Chapter 03
00:15:00.000 : :Chapter 04
00:20:00.000 : :Chapter 05
00:25:00.000 : :Chapter 06
00:30:00.000 : :Chapter 07
00:35:00.000 : :Chapter 08
00:40:00.000 : :Chapter 09
00:45:00.000 : :Chapter 10
00:50:00.000 : :Chapter 11
00:55:00.000 : :Chapter 12
01:00:00.000 : :Chapter 13
01:05:00.000 : :Chapter 14
01:10:00.000 : :Chapter 15
01:15:00.000 : :Chapter 16
01:20:00.000 : :Chapter 17
01:25:00.000 : :Chapter 18
01:30:00.000 : :Chapter 19
01:35:00.000 : :Chapter 20
01:40:00.000 : :Chapter 21
01:45:00.000 : :Chapter 22
01:50:00.000 : :Chapter 23
01:55:00.000 : :Chapter 24
02:00:00.000 : :Chapter 25
02:05:00.000 : :Chapter 26
02:10:00.000 : :Chapter 27
02:15:00.000 : :Chapter 28
02:20:00.000 : :Chapter 29
02:25:00.000 : :Chapter 30
02:30:00.000 : :Chapter 31
02:35:00.000 : :Chapter 32
02:40:00.000 : :Chapter 33
02:45:00.000 : :Chapter 34
02:50:00.000 : :Chapter 35
-Источник:
Показать сообщения:    

Текущее время: Сегодня 11:52

Часовой пояс: GMT



Вы не можете начинать темы
Вы не можете отвечать на сообщения
Вы не можете редактировать свои сообщения
Вы не можете удалять свои сообщения
Вы не можете голосовать в опросах
Вы не можете прикреплять файлы к сообщениям
Вы не можете скачивать файлы