Важное объявление!
У Нас Все раздачи мультитрекерные, при нуле пиров в релизах, можете смело вставать на закачку!
 
Автор Сообщение

HUNTER

Стаж:
4 года 4 месяца
Сообщений:
56798

Репутация: 101

[+] [-]
Вне форума [Профиль] [ЛС]

Три тополя на Плющихе [Цветная версия]
Страна: СССР
Жанр: мелодрама
Выпущено: Киностудия имени М.Горького
Год выпуска: 1967
Продолжительность: 01:18:24
Cубтитры: нет
Режиссер: Татьяна Лиознова
В ролях: Татьяна Доронина, Олег Ефремов, Вячеслав Шалевич, Алевтина Румянцева, Николай Смирнов, Валентина Телегина, Виктор Сергачев, Хикмат Латыпов, Валентин Печников, А. Волгина
Описание: Какие они минуты счастья? Конечно, разные. Но есть среди них и такие: сидит в такси женщина и поет. Вернее, старательно, не очень умело выводит пронзительную мелодию: «... Опустела без тебя земля, как мне несколько часов прожить.»
Странное иногда случается в жизни. Встретились два человека - симпатичная замужняя деревенская женщина, мать двоих детей приехавшая в Москву продавать домашнюю ветчину, и московский шофер, человек немолодой и далеко несловоохотливый.
Тип релиза: BDRip 1080p
Контейнер: MKV
Видео: MPEG-4 AVC, 12.4 Мбит/с, 1920x800, 24.000 fps
Аудио: Russian: 48 kHz, DTS, 6 ch, 1536 Кбит/с


Релиз- Кинозал ТВ - HD

MediaInfo

General
Complete name : Tri.topolja.na.Pluschihe.1967.x264.BDRip(1080p).mkv
Format : Matroska
File size : 7.64 GiB
Duration : 1h 18mn
Overall bit rate : 14.0 Mbps
Encoded date : UTC 2011-03-28 12:54:06
Writing application : mkvmerge v3.4.0 ('Rapunzel') сборка от May 15 2010 09:38:20
Writing library : libebml v0.8.0 + libmatroska v0.9.0
Video
ID : 1
Format : AVC
Format/Info : Advanced Video Codec
Format profile : High@L4.1
Format settings, CABAC : Yes
Format settings, ReFrames : 5 frames
Codec ID : V_MPEG4/ISO/AVC
Duration : 1h 18mn
Bit rate : 12.4 Mbps
Width : 1 920 pixels
Height : 800 pixels
Display aspect ratio : 2.40:1
Frame rate : 24.000 fps
Color space : YUV
Chroma subsampling : 4:2:0
Bit depth : 8 bits
Scan type : Progressive
Bits/(Pixel*Frame) : 0.338
Stream size : 6.66 GiB (87%)
Writing library : x264 core 114 r1913 5fd3dce
Encoding settings : cabac=1 / ref=5 / deblock=1:-3:-3 / analyse=0x3:0x133 / me=umh / subme=10 / psy=1 / psy_rd=1.05:0.10 / mixed_ref=1 / me_range=64 / chroma_me=1 / trellis=2 / 8x8dct=1 / cqm=0 / deadzone=21,11 / fast_pskip=1 / chroma_qp_offset=-3 / threads=9 / sliced_threads=0 / nr=0 / decimate=1 / interlaced=0 / constrained_intra=0 / bframes=10 / b_pyramid=2 / b_adapt=2 / b_bias=0 / direct=3 / weightb=1 / open_gop=0 / weightp=2 / keyint=250 / keyint_min=24 / scenecut=40 / intra_refresh=0 / rc_lookahead=60 / rc=2pass / mbtree=1 / bitrate=12449 / ratetol=1.0 / qcomp=0.70 / qpmin=0 / qpmax=51 / qpstep=4 / cplxblur=20.0 / qblur=0.5 / vbv_maxrate=50000 / vbv_bufsize=62500 / nal_hrd=none / ip_ratio=1.40 / aq=1:0.80
Audio
ID : 2
Format : DTS
Format/Info : Digital Theater Systems
Codec ID : A_DTS
Duration : 1h 18mn
Bit rate mode : Constant
Bit rate : 1 510 Kbps
Channel(s) : 6 channels
Channel positions : Front: L C R, Side: L R, LFE
Sampling rate : 48.0 KHz
Bit depth : 16 bits
Compression mode : Lossy
Stream size : 847 MiB (11%)
Language : Russian

Скриншоты

Награды

Приз экуменического жюри на МКФ в Мар-дель-Плата в 1968 году, премия актрисе Татьяне Дорониной на ВКФ в Минске в 1970 году.

Интересно

Изначально фильм должен был называться, как и рассказ, «„Три тополя“ на Шаболовке». Однако в конце 60-х слово «Шаболовка» уже прочно ассоциировалось с телевидением, и это могло помешать восприятию фильма зрителем. Ведь в картине про телевидение — ни слова.
Фильм действительно снимался на Плющихе, в настоящей квартире, хозяева которой уступили её съёмочной группе, съехав на дачу. Сцены в вагоне — в специально заказанных вагонах на тепловозной тяге. Деревенские сцены — павильонные, снимались зимой.

_________________
Показать сообщения:    

Текущее время: Сегодня 20:14

Часовой пояс: GMT



Вы не можете начинать темы
Вы не можете отвечать на сообщения
Вы не можете редактировать свои сообщения
Вы не можете удалять свои сообщения
Вы не можете голосовать в опросах
Вы не можете прикреплять файлы к сообщениям
Вы не можете скачивать файлы