Важное объявление!
У Нас Все раздачи мультитрекерные, при нуле пиров в релизах, можете смело вставать на закачку!
 
Автор Сообщение

HUNTER

Стаж:
4 года 4 месяца
Сообщений:
56829

Репутация: 101

[+] [-]
Вне форума [Профиль] [ЛС]

Три толстяка-
Год выпуска: 1963г.
Страна: СССР
Жанр: Мультфильм
Продолжительность: 00:34:09
Режиссеры: Валентина Брумберг, Зинаида Брумберг
Описание:
Мультфильм создан по знаменитой сказке Ю. К. Олеши. В стране Трёх Толстяков предреволюционная обстановка — недовольство бедной части общества, попытки поднять мятеж. Идейными вдохновителями революционеров являются оружейник Просперо и гимнаст Тибул. Один из главных героев повести, учёный, доктор Гаспар Арнери, сочувствует народу, хотя сам — довольно обеспеченный человек. Поднявшие мятеж гвардейцы дворцовой стражи испортили чудесную куклу наследника Тутти, подобную внешне живой девочке, и доктору отдан приказ починить механизм за одну ночь под угрозой строгого наказания. Он не может этого сделать по объективным причинам и везёт куклу во дворец, но по дороге теряет её. В поисках куклы он находит девочку-циркачку Суок, как две капли воды похожую на сломанную куклу. Она соглашается подменить куклу и помочь революционерам (спасти Просперо из дворцового зверинца). Девочке это удаётся, но саму её приговаривают к смерти. Тем не менее, всё для неё и революционеров складывается удачно, власть Толстяков свергают, а Суок и Тутти, оказавшийся её братом, дают представления вместе
Релиз:
Качество: DVDRip-AVC
Контейнер: MKV
Видео: 718x556 (1.378) @ 766x556, 25.000 fps, AVC, ~2069 Kbps, 0.207 bits/pixel
Аудио: Russian, 48.0 KHz, AC3, 6 ch, 448 Kbps
Субтитры: отсуствуют

Скриншоты

Тех.данные

General
Unique ID : 217624621083502678547527370602464617953 (0xA3B8FA3961884974B6C68095454F25E1)
Complete name : C:\torrent\Owner\Сказки русских писателей\Три толстяка.mkv
Format : Matroska
Format version : Version 2
File size : 627 MiB
Duration : 34mn 9s
Overall bit rate : 2 568 Kbps
Encoded date : UTC 2011-12-04 19:16:02
Writing application : mkvmerge v5.0.1 ('Es ist Sommer') built on Oct 9 2011 11:55:43
Writing library : libebml v1.2.2 libmatroska v1.3.0
Video
ID : 1
Format : AVC
Format/Info : Advanced Video Codec
Format profile : High@L4.0
Format settings, CABAC : Yes
Format settings, ReFrames : 16 frames
Format settings, GOP : M=5, N=50
Codec ID : V_MPEG4/ISO/AVC
Duration : 34mn 9s
Bit rate : 2 069 Kbps
Width : 718 pixels
Height : 556 pixels
Display aspect ratio : 1.378
Original display aspect ratio : 1.377
Frame rate : 25.000 fps
Color space : YUV
Chroma subsampling : 4:2:0
Bit depth : 8 bits
Scan type : Progressive
Bits/(Pixel*Frame) : 0.207
Stream size : 505 MiB (81%)
Title : Nyc-2008 / rutracker.org / RG Multfilmy
Writing library : x264 core 119 r2106kMod 07efeb4
Encoding settings : cabac=1 / ref=16 / deblock=1:0:0 / analyse=0x3:0x113 / me=umh / subme=11 / psy=1 / fade_compensate=0.00 / psy_rd=1.00:0.10 / mixed_ref=1 / me_range=24 / chroma_me=1 / trellis=2 / 8x8dct=1 / cqm=0 / deadzone=21,11 / fast_pskip=0 / chroma_qp_offset=-3 / threads=6 / sliced_threads=0 / nr=0 / decimate=1 / interlaced=0 / bluray_compat=0 / constrained_intra=0 / bframes=10 / b_pyramid=2 / b_adapt=2 / b_bias=0 / direct=1 / weightb=1 / open_gop=0 / weightp=2 / keyint=250 / keyint_min=25 / scenecut=40 / intra_refresh=0 / rc_lookahead=60 / rc=crf / mbtree=1 / crf=18.0000 / qcomp=0.60 / qpmin=0 / qpmax=69 / qpstep=4 / ip_ratio=1.40 / aq=2:1.00
Language : Russian
Audio
ID : 2
Format : AC-3
Format/Info : Audio Coding 3
Mode extension : CM (complete main)
Codec ID : A_AC3
Duration : 34mn 9s
Bit rate mode : Constant
Bit rate : 448 Kbps
Channel(s) : 6 channels
Channel positions : Front: L C R, Side: L R, LFE
Sampling rate : 48.0 KHz
Bit depth : 16 bits
Compression mode : Lossy
Stream size : 109 MiB (17%)
Language : Russian

_________________
Показать сообщения:    

Текущее время: Сегодня 16:42

Часовой пояс: GMT



Вы не можете начинать темы
Вы не можете отвечать на сообщения
Вы не можете редактировать свои сообщения
Вы не можете удалять свои сообщения
Вы не можете голосовать в опросах
Вы не можете прикреплять файлы к сообщениям
Вы не можете скачивать файлы