Важное объявление!
У Нас Все раздачи мультитрекерные, при нуле пиров в релизах, можете смело вставать на закачку!
 
Автор Сообщение

HUNTER

Стаж:
4 года 4 месяца
Сообщений:
56798

Репутация: 101

[+] [-]
Вне форума [Профиль] [ЛС]

Три мушкетера / The Three Musketeers-
Страна: США, Австрия
Студия: Walt Disney Pictures, Vienna Film Financing Fund, One for All Productions Inc.
Жанр: Боевик, комедия, мелодрама, приключения, семейный,
Год выпуска: 1993
Продолжительность: 01:45:29
Перевод 1: Профессиональный (многоголосый закадровый) ОРТ
Перевод 2: Профессиональный (двухголосый закадровый) НТВ+
Перевод 3: Профессиональный (двухголосый закадровый) СТС
Перевод 4: Авторский (одноголосый закадровый) А. Гаврилов
Перевод 5: Авторский (одноголосый закадровый) В. Горчаков
Перевод 6: Авторский (одноголосый закадровый) Л. Володарский
Cубтитры: Английские
Оригинальная аудиодорожка: Английский
Режиссер: Стивен Херек / Stephen Herek
В ролях: Чарли Шин, Кифер Сазерленд, Крис О'Доннелл, Оливер Платт, Тим Карри, Ребекка Де Морнэй, Габриэлла Анвар.
Описание: Настоящая любовь и опасные приключения, о которых другие только мечтают, стали буднями для трех мушкетеров. Эти истинные рыцари без страха и упрека не признают никаких законов, кроме закона чести.
Их нельзя поставить на колени, потому что они преклоняются только перед отвагой и мужеством.-Рейтинг
[img]https://rating.kinopoisk.ru/4743.gif[/img]-Сэмпл
Тип релиза: WEB-DL 1080p
Контейнер: MKV
Видео: 1920x816 (2,35:1), 23.976 fps, x264, ~9 563 kbps
Аудио 1: Russian: 48 kHz, AC3, 2/0 (L,R) ch, ~192 kbps | Многоголосый закадровый, ОРТ
Аудио 2: Russian: 48 kHz, AC3, 2/0 (L,R) ch, ~192 kbps | Двухголосый закадровый, НТВ+
Аудио 3: Russian: 48 kHz, AAC, 2/0 (L,R) ch, ~160 kbps | Двухголосый закадровый, СТС?, iTunes
Аудио 4: Russian: 48 kHz, AC3, 3/2 (L,C,R,l,r) + LFE ch, ~448 kbps | Одноголосый закадровый, А. Гаврилов
Аудио 5: Russian: 48 kHz, AC3, 2/0 (L,R) ch, ~192 kbps | Одноголосый закадровый, В. Горчаков
Аудио 6: Russian: 48 kHz, AC3, 2/0 (L,R) ch, ~192 kbps | Одноголосый закадровый, Л. Володарский
Аудио 7: English: 48 kHz, E-AC3, 3/2 (L,C,R,l,r) + LFE ch, ~640 kbps
Субтитры: Английские (SDH)
Формат субтитров: softsub (SRT)

Дополнительно

За исходные дорожки спасибо [url=viewtopic.php?t=2307652]PetrRomanov[/url], motel, [url=viewtopic.php?t=1711340]НюсеГ[/url].
За дорожку СТС большое спасибо Mark20100.

MediaInfo

Общее
Unique ID : 207779457690495606946812077027744598609 (0x9C50DE3147E80D98A12BD2347E40CA51)
Complete name : E:\video_rutracker\The.Three.Musketeers.1993.WEB-DL.1080p.6xRus.Eng.H.264.mkv
Format : Matroska
Format version : Version 2
File size : 8,68 Гбайт
Duration : 1 ч. 45 м.
Overall bit rate mode : Переменный
Overall bit rate : 11,8 Мбит/сек
Movie name : The.Three.Musketeers.1993.WEB-DL.1080p | RuTracker | igrok2012
Encoded date : UTC 2016-09-06 09:19:33
Writing application : mkvmerge v8.3.0 ('Over the Horizon') 64bit
Writing library : libebml v1.3.1 + libmatroska v1.4.2
Cover : Yes
Attachments : cover.jpg
Видео
ID : 1
Format : AVC
Format/Info : Advanced Video Codec
Format profile : High@L4
Format settings, CABAC : Да
Format settings, ReFrames : 4 кадра
Codec ID : V_MPEG4/ISO/AVC
Duration : 1 ч. 45 м.
Bit rate mode : Переменный
Maximum bit rate : 15,0 Мбит/сек
Width : 1920 пикселей
Height : 816 пикселей
Display aspect ratio : 2,35:1
Frame rate mode : Постоянный
Frame rate : 23,976 (24000/1001) кадра/сек
Color space : YUV
Chroma subsampling : 4:2:0
Bit depth : 8 бит
Scan type : Прогрессивная
Writing library : x264 core 148 r2623 d5b2374
Encoding settings : cabac=1 / ref=4 / deblock=1:-1:-1 / analyse=0x3:0x133 / me=umh / subme=9 / psy=1 / psy_rd=1.00:0.15 / mixed_ref=1 / me_range=24 / chroma_me=1 / trellis=2 / 8x8dct=1 / cqm=0 / deadzone=21,11 / fast_pskip=1 / chroma_qp_offset=-3 / threads=25 / lookahead_threads=4 / sliced_threads=0 / nr=150 / decimate=1 / interlaced=0 / bluray_compat=0 / constrained_intra=0 / bframes=8 / b_pyramid=2 / b_adapt=2 / b_bias=0 / direct=3 / weightb=1 / open_gop=0 / weightp=2 / keyint=120 / keyint_min=61 / scenecut=0 / intra_refresh=0 / rc_lookahead=120 / rc=crf / mbtree=1 / crf=18.0 / qcomp=0.60 / qpmin=0 / qpmax=69 / qpstep=4 / vbv_maxrate=15000 / vbv_bufsize=31250 / crf_max=0.0 / nal_hrd=vbr / filler=0 / ip_ratio=1.40 / aq=3:1.00
Default : Да
Forced : Нет
Color range : Limited
Color primaries : BT.709
Transfer characteristics : BT.709
Matrix coefficients : BT.709
Аудио #1
ID : 2
Format : AC-3
Format/Info : Audio Coding 3
Mode extension : CM (complete main)
Format settings, Endianness : Big
Codec ID : A_AC3
Duration : 1 ч. 45 м.
Bit rate mode : Постоянный
Bit rate : 192 Кбит/сек
Channel(s) : 2 канала
Channel positions : Front: L R
Sampling rate : 48,0 КГц
Frame rate : 31,250 кадров/сек (1536 spf)
Compression mode : С потерями
Stream size : 145 Мбайт (2%)
Title : Многоголосый закадровый, ОРТ
Language : Russian
Default : Да
Forced : Нет
Аудио #2
ID : 3
Format : AC-3
Format/Info : Audio Coding 3
Mode extension : CM (complete main)
Format settings, Endianness : Big
Codec ID : A_AC3
Duration : 1 ч. 45 м.
Bit rate mode : Постоянный
Bit rate : 192 Кбит/сек
Channel(s) : 2 канала
Channel positions : Front: L R
Sampling rate : 48,0 КГц
Frame rate : 31,250 кадров/сек (1536 spf)
Compression mode : С потерями
Stream size : 145 Мбайт (2%)
Title : Двухголосый закадровый, НТВ+
Language : Russian
Default : Нет
Forced : Нет
Аудио #3
ID : 4
Format : AAC
Format/Info : Advanced Audio Codec
Format profile : HE-AAC / LC
Codec ID : A_AAC
Duration : 1 ч. 45 м.
Channel(s) : 2 канала
Channel positions : Front: L R
Sampling rate : 96,0 КГц / 48,0 КГц
Frame rate : 46,875 кадров/сек (1024 spf)
Compression mode : С потерями
Title : Двухголосый закадровый, СТС
Language : Russian
Default : Нет
Forced : Нет
Аудио #4
ID : 5
Format : AC-3
Format/Info : Audio Coding 3
Mode extension : CM (complete main)
Format settings, Endianness : Big
Codec ID : A_AC3
Duration : 1 ч. 45 м.
Bit rate mode : Постоянный
Bit rate : 448 Кбит/сек
Channel(s) : 6 каналов
Channel positions : Front: L C R, Side: L R, LFE
Sampling rate : 48,0 КГц
Frame rate : 31,250 кадров/сек (1536 spf)
Compression mode : С потерями
Stream size : 338 Мбайт (4%)
Title : Одноголосый закадровый, А. Гаврилов
Language : Russian
Default : Нет
Forced : Нет
Аудио #5
ID : 6
Format : AC-3
Format/Info : Audio Coding 3
Mode extension : CM (complete main)
Format settings, Endianness : Big
Codec ID : A_AC3
Duration : 1 ч. 45 м.
Bit rate mode : Постоянный
Bit rate : 192 Кбит/сек
Channel(s) : 2 канала
Channel positions : Front: L R
Sampling rate : 48,0 КГц
Frame rate : 31,250 кадров/сек (1536 spf)
Compression mode : С потерями
Stream size : 145 Мбайт (2%)
Title : Одноголосый закадровый, В. Горчаков
Language : Russian
Default : Нет
Forced : Нет
Аудио #6
ID : 7
Format : AC-3
Format/Info : Audio Coding 3
Mode extension : CM (complete main)
Format settings, Endianness : Big
Codec ID : A_AC3
Duration : 1 ч. 45 м.
Bit rate mode : Постоянный
Bit rate : 192 Кбит/сек
Channel(s) : 2 канала
Channel positions : Front: L R
Sampling rate : 48,0 КГц
Frame rate : 31,250 кадров/сек (1536 spf)
Compression mode : С потерями
Stream size : 145 Мбайт (2%)
Title : Одноголосый закадровый, Л. Володарский
Language : Russian
Default : Нет
Forced : Нет
Аудио #7
ID : 8
Format : E-AC-3
Format/Info : Audio Coding 3
Format settings, Endianness : Big
Codec ID : A_EAC3
Duration : 1 ч. 45 м.
Bit rate mode : Постоянный
Bit rate : 640 Кбит/сек
Channel(s) : 6 каналов
Channel positions : Front: L C R, Side: L R, LFE
Sampling rate : 48,0 КГц
Frame rate : 187,500 кадров/сек (256 spf)
Compression mode : С потерями
Stream size : 483 Мбайт (5%)
Language : English
Default : Нет
Forced : Нет
Текст
ID : 9
Format : UTF-8
Codec ID : S_TEXT/UTF8
Codec ID/Info : UTF-8 Plain Text
Title : SDH
Language : English
Default : Нет
Forced : Нет

Скриншоты


_________________
Показать сообщения:    

Текущее время: Сегодня 03:07

Часовой пояс: GMT



Вы не можете начинать темы
Вы не можете отвечать на сообщения
Вы не можете редактировать свои сообщения
Вы не можете удалять свои сообщения
Вы не можете голосовать в опросах
Вы не можете прикреплять файлы к сообщениям
Вы не можете скачивать файлы