Важное объявление!
У Нас Все раздачи мультитрекерные, при нуле пиров в релизах, можете смело вставать на закачку!
 
Автор Сообщение

HUNTER

Стаж:
4 года 4 месяца
Сообщений:
56755

Репутация: 101

[+] [-]
Вне форума [Профиль] [ЛС]

Три мастер-класса по лепке кукол. Куклы Республики Беларусь-
Год выпуска: 2007
Страна: Белоруссия
Сайт производителя: Отсутствует
Тематика: Лепка кукол
Тип материала: Обучающее видео-Продолжительность: 00:42:18+00:28:04+00:48:38=01:59:00
Автор: Ирина Рожко, Ирина Штефан-Язык: Русский
Субтитры: Отсутствуют-Описание: Три мастер-класса по лепке голов кукол: из полимерного пластика, из паперклея и фарфора.-Качество: DVDRip
Формат: AVI
Видео кодек: DivX
Аудио кодек: Microsoft PCM
Видео:
Пластик: 720x576 (1.25:1), 25 fps, DivX Codec 5.x or 6.x ~780 kbps avg, 0.07 bit/pixel
Паперклей: 720x576 (1.25:1), 25 fps, DivX Codec 5.2.1 build 1328 ~1137 kbps avg, 0.11 bit/pixel
Фарфор: 720x576 (1.25:1), 25 fps, DivX Codec 5.x or 6.x ~780 kbps avg, 0.07 bit/pixel
Аудио:
Пластик: 48 kHz, Microsoft PCM, 2 ch, ~1536.00 kbps avg
Паперклей: 48 kHz, Microsoft PCM, 2 ch, ~1536.00 kbps avg
Фарфор: 48 kHz, Microsoft PCM, 2 ch, ~1536.00 kbps avg-

MediaInfo

Код: copyText_writeLink('this.parentNode.parentNode.nextSibling.nextSibling'); Общее
Полное имя : E:\Обучение\Куклы республики беларусь\Kukly1PolimPlast.avi
Формат : AVI
Формат/Информация : Audio Video Interleave
Размер файла : 704 Мбайт
Продолжительность : 42 м.
Общий поток : 2326 Кбит/сек
Библиотека кодирования : VirtualDub-MPEG2 build 23777/release
Видео
Идентификатор : 0
Формат : MPEG-4 Visual
Параметр BVOP формата : 1
Параметр QPel формата : Нет
Параметр GMC формата : Без точки перехода
Параметр матрицы формата : Default (H.263)
Режим смешивания : Сжатый битовый поток
Идентификатор кодека : DX50
Идентификатор кодека/Подсказка : DivX 5
Продолжительность : 42 м.
Битрейт : 781 Кбит/сек
Ширина : 720 пикселей
Высота : 576 пикселей
Соотношение сторон : 5:4
Частота кадров : 25,000 кадров/сек
Стандарт вещания : PAL
Цветовое пространство : YUV
Субдискретизация насыщенности : 4:2:0
Битовая глубина : 8 бит
Тип развёртки : Прогрессивная
Метод сжатия : С потерями
Бит/(Пиксели*Кадры) : 0.075
Размер потока : 236 Мбайт (34%)
Библиотека кодирования : DivX 6.2.2 (UTC 2006-04-26)
Аудио
Идентификатор : 1
Формат : PCM
Параметр Endianness формата : Little
Параметр Sign формата : Signed
Идентификатор кодека : 1
Продолжительность : 42 м.
Вид битрейта : Постоянный
Битрейт : 1536 Кбит/сек
Каналы : 2 канала
Частота : 48,0 КГц
Битовая глубина : 16 бит
Размер потока : 465 Мбайт (66%)
Продолжительность промежутка : 40 мс. (1,00 видеокадр)
Время предзагрузки промежутка : 500 мс.
- -

_________________
Показать сообщения:    

Текущее время: Сегодня 13:54

Часовой пояс: GMT



Вы не можете начинать темы
Вы не можете отвечать на сообщения
Вы не можете редактировать свои сообщения
Вы не можете удалять свои сообщения
Вы не можете голосовать в опросах
Вы не можете прикреплять файлы к сообщениям
Вы не можете скачивать файлы