Важное объявление!
У Нас Все раздачи мультитрекерные, при нуле пиров в релизах, можете смело вставать на закачку!
 
Автор Сообщение

HUNTER

Стаж:
4 года 4 месяца
Сообщений:
56733

Репутация: 101

[+] [-]
Вне форума [Профиль] [ЛС]

Три богатыря и Шамаханская царица
Страна: Россия
Жанр: Приключения
Продолжительность: 01:13:28
Год выпуска: 2010
Перевод: Не требуется
Русские субтитры: нет
Режиссёр: Сергей Глезин
Описание: Легендарная Шамаханская царица, которая сводила с ума многих царей и простых смертных, положила свой глаз и на Киевского князя. Тот заболел любовью странной по ней. Но чтобы доставить в целости и сохранности эту чудо-богиню в Киев-Град, срочно из отпуска вызывают всех троих, уже знакомых нам, богатырей: Алёшу Поповича, Добрыню Никитича и Илью Муромца. Теперь троица должна решить, как быть дальше? Вроде бы и слухи о царице ходят нелестные, и князя жаль.
Семпл: http://www.sendspace.com/file/5srz3a
Качество: DVD5
Формат: DVD-video
Видео: MPEG Video; 5769 Кбит/сек; 720х576 (16:9); 25,000 кадров/сек; PAL
Аудио: AC-3; 448 Кбит/сек; 6 каналов; 48,0 КГц
Субтитры: Отсутствуют
DVDInfo
Title: Три богатыря (DVD5) [кгекфслукющкп]Size: 3.77 Gb ( 3 953 718,00 KBytes ) - DVD-5Enabled regions: 1, 2, 3, 4, 5, 6, 7, 8
VTS_01 : Play Length: 00:00:16 Video: PAL 16:9 (720x576) VBR, Auto Letterboxed Audio: Russian (Dolby AC3, 2 ch)
VTS_02 : Play Length: 01:13:28 Video: PAL 16:9 (720x576) VBR, Auto Letterboxed Audio: Russian, AC3, 3/2 (L,C,R,SL,SR)+LFE ch, 448 kbps, Delay 0 mSec
VTS_03 : Play Length: 00:01:41+00:01:53+00:01:23+00:01:41 Video: PAL 16:9 (720x576) VBR, Auto Letterboxed Audio: Russian (Dolby AC3, 2 ch)
* Menus Information *
VIDEO_TS MenuVideo: PAL 16:9 (720x576) VBR Auto LetterboxedAudio: Not specified (Dolby AC3, 2 ch)Russian Language Unit : Title Menu
VTS_01 MenuVideo: NTSC 4:3 (720x480) VBR Auto Pan&Scan, Auto LetterboxedLanguage Unit : Subpicture Menu Angle menuLanguage Unit :
Language Unit : Subpicture MenuLanguage Unit : Subpicture MenuLanguage Unit : Subpicture Menu
VTS_02 MenuVideo: PAL 16:9 (720x576) VBR Auto LetterboxedAudio: Not specified (Dolby AC3, 2 ch)Russian Language Unit : Root Menu Chapter (PTT) Menu
VTS_03 MenuVideo: PAL 16:9 (720x576) VBR Auto LetterboxedAudio: Not specified (Dolby AC3, 2 ch)Russian Language Unit : Root Menu Angle menu
Скриншоты менюСкриншотыMI
Общее
Полное имя : E:\VTS_02_1.VOB
Формат : MPEG-PS
Размер файла : 1024 Мбайт
Продолжительность : 22 м.
Режим общего битрейта : Переменный
Общий поток : 6343 Кбит/сек
Видео
Идентификатор : 224 (0xE0)
Формат : MPEG Video
Версия формата : Version 2
Профиль формата : Main@Main
Параметр BVOP формата : Да
Параметр матрицы формата : Выборочная
Параметр GOP формата : Variable
Продолжительность : 22 м.
Вид битрейта : Переменный
Битрейт : 5769 Кбит/сек
Максимальный битрейт : 8000 Кбит/сек
Ширина : 720 пикселей
Высота : 576 пикселей
Соотношение сторон : 16:9
Частота кадров : 25,000 кадров/сек
Стандарт вещания : PAL
Цветовое пространство : YUV
Субдискретизация насыщенности : 4:2:0
Битовая глубина : 8 бит
Тип развёртки : Чересстрочная
Порядок развёртки : Верхнее поле первое
Метод сжатия : С потерями
Бит/(Пиксели*Кадры) : 0.556
Временной код первого кадра : 00:00:00:00
Оригинал временного кода : Group of pictures header
Размер потока : 931 Мбайт (91%)
Аудио
Идентификатор : 189 (0xBD)-128 (0x80)
Формат : AC-3
Формат/Информация : Audio Coding 3
Расширение режима : CM (complete main)
Параметр Endianness формата : Big
Режим смешивания : DVD-Video
Продолжительность : 22 м.
Вид битрейта : Постоянный
Битрейт : 448 Кбит/сек
Каналы : 6 каналов
Расположение каналов : Front: L C R, Side: L R, LFE
Частота : 48,0 КГц
Битовая глубина : 16 бит
Метод сжатия : С потерями
Размер потока : 72,3 Мбайт (7%)
Меню

_________________
Показать сообщения:    

Текущее время: Сегодня 02:46

Часовой пояс: GMT



Вы не можете начинать темы
Вы не можете отвечать на сообщения
Вы не можете редактировать свои сообщения
Вы не можете удалять свои сообщения
Вы не можете голосовать в опросах
Вы не можете прикреплять файлы к сообщениям
Вы не можете скачивать файлы