Важное объявление!
У Нас Все раздачи мультитрекерные, при нуле пиров в релизах, можете смело вставать на закачку!
 
Автор Сообщение

HUNTER

Стаж:
4 года 4 месяца
Сообщений:
56842

Репутация: 101

[+] [-]
Вне форума [Профиль] [ЛС]

Третья попытка- -Страна: Россия
Жанр: мелодрама
Год выпуска: 2015
Производство: «Кинокомпания Русское»
Продолжительность: 01:30:50
Оригинальная аудиодорожка: русский
Cубтитры: нет-Режиссер: Игорь Мужжухин-В ролях:
Екатерина Рябова, Александр Асташёнок, Александр Пашков, Анжелика Кошевая,
Пётр Баранчеев, Сергей Ерошенков, Андрей Рогожин, Татьяна Храмова-Описание:
Настя и Олег пять лет вместе. Настя — медсестра, Олег — музыкант в оркестре, постоянно пропадающий на репетициях.
Их семейное счастье во многом держится на Насте — нежной, заботливой жене, готовой во всём поддерживать своего любимого.
Но однажды, придя домой раньше времени, Настя застаёт мужа с любовницей.
Поддавшись раскаянию Олега, Настя прощает его, но счастье уже не удаётся сохранить, и семья рушится…-Возраст: 12+-Качество: HDTV (1080i)
Формат: TS
Видео кодек: AVC
Аудио кодек: MPEG Audio

Видео: AVC, 1920 х 1080 (16:9), 25,000 кадр/сек, 7 867 Кбит/сек, 0.152 bit/pixel
Аудио: MPEG Audio 2, 48000 Hz, 192 Kbps, 2 канала
-

MediaInfo

General
ID : 1 (0x1)
Complete name : D:\Раздачи\Третья попытка HDTV (1080i)\Третья попытка HDTV (1080i).ts
Format : MPEG-TS
File size : 5.38 GiB
Duration : 1h 30mn
Overall bit rate mode : Variable
Overall bit rate : 8 480 Kbps
Video
ID : 2911 (0xB5F)
Menu ID : 1057 (0x421)
Format : AVC
Format/Info : Advanced Video Codec
Format profile : High@L4
Format settings, CABAC : Yes
Format settings, ReFrames : 4 frames
Codec ID : 27
Duration : 1h 30mn
Bit rate : 7 867 Kbps
Width : 1 920 pixels
Height : 1 080 pixels
Display aspect ratio : 16:9
Frame rate : 25.000 fps
Color space : YUV
Chroma subsampling : 4:2:0
Bit depth : 8 bits
Scan type : MBAFF
Scan type, store method : Interleaved fields
Scan order : Top Field First
Bits/(Pixel*Frame) : 0.152
Stream size : 4.99 GiB (93%)
Audio
ID : 2912 (0xB60)
Menu ID : 1057 (0x421)
Format : MPEG Audio
Format version : Version 1
Format profile : Layer 2
Codec ID : 3
Duration : 1h 30mn
Bit rate mode : Constant
Bit rate : 192 Kbps
Channel(s) : 2 channels
Sampling rate : 48.0 KHz
Compression mode : Lossy
Stream size : 125 MiB (2%)
Language : Russian

Скриншоты


-Раздаю до первых 5-ти скачавших, на раздачи не возвращаюсь...-

_________________
Показать сообщения:    

Текущее время: Сегодня 14:45

Часовой пояс: GMT



Вы не можете начинать темы
Вы не можете отвечать на сообщения
Вы не можете редактировать свои сообщения
Вы не можете удалять свои сообщения
Вы не можете голосовать в опросах
Вы не можете прикреплять файлы к сообщениям
Вы не можете скачивать файлы