Важное объявление!
У Нас Все раздачи мультитрекерные, при нуле пиров в релизах, можете смело вставать на закачку!
 
Автор Сообщение

HUNTER

Стаж:
4 года 4 месяца
Сообщений:
56772

Репутация: 101

[+] [-]
Вне форума [Профиль] [ЛС]

Трест, который лопнул
Страна: СССР
Студия: Одесская киностудия
Жанр: Приключения, музыкальная комедия.
Год выпуска: 1982
Общаяя продолжительность: 03:13:15
Первая серия: 01:03:44
Вторая серия: 01:06:28
Третья серия: 01:03:02
Режиссер: Александр Павловский
В ролях: Регимантас Адомайтис, Николай Караченцов,
Леонид Куравлёв, Михаил Светин, Ирина Понаровская,
Владимир Басов, Юрий Мажуга, Павел Винник,
Елена Аминова, Всеволод Абдулов, и др.
Описание: Двое доморощенных мошенников-авантюристов, встретившись
волей случая, решили объединить свои усилия, ведь вдвоём проще дурить
наивных и доверчивых простаков, чтоб прикарманивать их денежные (и не только)
средства... Однако не всё так просто! Не всегда, и не всё, получается у них так,
как они задумали! Достаточно часто они и сами оказываются в дураках...
Фильм снят по мотивам рассказов О`Генри.
Меню: Анимированное, озвученное.
Издатель диска: Магнат
Тип релиза: DVD5
Контейнер: DVD-Video
Видео кодек: MPEG-2
Аудио кодек: AC-3
Видео: PAL 4:3 (720x576) VBR, 2892 kbps - 8308 kbps
Аудио: Russian (Dolby AC3, 2 ch) CBR 192 kbps, Front: L R, 48.0 KHz 16 bits

DVDInfo

Title: Trest_kotorii_lopnul_1982_DVD5_[rutracker.org]Size: 4.36 Gb ( 4 572 000,00 KBytes ) - DVD-5Enabled regions: 1, 2, 3, 4, 5, 6, 7, 8
VTS_01 : Play Length: 00:00:27 Video: PAL 4:3 (720x576) VBR Audio: Not specified (Dolby AC3, 2 ch)
VTS_02 : Play Length: 01:03:44 Video: PAL 4:3 (720x576) VBR Audio: Russian (Dolby AC3, 2 ch)
VTS_03 : Play Length: 01:06:28 Video: PAL 4:3 (720x576) VBR Audio: Russian (Dolby AC3, 2 ch)
VTS_04 : Play Length: 01:03:02 Video: PAL 4:3 (720x576) VBR Audio: Russian (Dolby AC3, 2 ch)
* Menus Information *
VIDEO_TS MenuVideo: PAL 4:3 (720x576) VBREnglish Language Unit : Title Menu
VTS_01 MenuVideo: PAL 4:3 (720x576) VBRAudio: Not specified (Dolby AC3, 2 ch)English Language Unit : Root Menu Angle menu Chapter (PTT) Menu
VTS_02 MenuVideo: PAL 4:3 (720x576) VBR Auto Pan&Scan, Auto LetterboxedEnglish Language Unit : Root Menu Chapter (PTT) Menu
VTS_03 MenuVideo: PAL 4:3 (720x576) VBR Auto Pan&Scan, Auto LetterboxedEnglish Language Unit : Root Menu Chapter (PTT) Menu
VTS_04 MenuVideo: PAL 4:3 (720x576) VBR Auto Pan&Scan, Auto LetterboxedEnglish Language Unit : Root Menu Chapter (PTT) Menu

MediaInfo - VTS_02_1.VOB

ОбщееПолное имя : D:\Trest_kotorii_lopnul_1982_DVD5_[rutracker.org]\VIDEO_TS\VTS_02_1.VOBФормат : MPEG-PSРазмер файла : 1000 МбайтПродолжительность : 44 м.Режим общего битрейта : ПеременныйОбщий поток : 3147 Кбит/сек
ВидеоИдентификатор : 224 (0xE0)Формат : MPEG VideoВерсия формата : Version 2Профиль формата : Main@MainПараметр BVOP формата : ДаПараметр матрицы формата : По умолчаниюПараметр GOP формата : M=3, N=13Продолжительность : 44 м.Вид битрейта : ПеременныйБитрейт : 2892 Кбит/секМаксимальный битрейт : 8308 Кбит/секШирина : 720 пикселейВысота : 576 пикселейСоотношение сторон : 4:3Частота кадров : 25,000 кадров/секСтандарт вещания : PALЦветовое пространство : YUVСубдискретизация насыщенности : 4:2:0Битовая глубина : 8 битТип развёртки : ПрогрессивнаяМетод сжатия : С потерямиБит/(Пиксели*Кадры) : 0.279Временной код первого кадра : 00:00:00:00Оригинал временного кода : Group of pictures headerРазмер потока : 919 Мбайт (92%)
АудиоИдентификатор : 189 (0xBD)-128 (0x80)Формат : AC-3Формат/Информация : Audio Coding 3Расширение режима : CM (complete main)Параметр Endianness формата : BigРежим смешивания : DVD-VideoПродолжительность : 44 м.Вид битрейта : ПостоянныйБитрейт : 192 Кбит/секКаналы : 2 каналаРасположение каналов : Front: L RЧастота : 48,0 КГцБитовая глубина : 16 битМетод сжатия : С потерямиРазмер потока : 61,0 Мбайт (6%)
Меню

Скриншоты меню

Скриншоты



Дополнительная информация


Дополнительная информация

Раздача: По возможности!!!

_________________

petkoly

Стаж:
2 года 5 месяцев
Сообщений:
1
Вне форума [Профиль] [ЛС]

А раздачи-балалайка....очень жаль,даже обрадовался сначала...спасибо собственно и не за что!

HUNTER

Стаж:
4 года 4 месяца
Сообщений:
56772

Репутация: 101

[+] [-]
Вне форума [Профиль] [ЛС]

petkoly писал(а):

А раздачи-балалайка....очень жаль,даже обрадовался сначала...спасибо собственно и не за что!
что это значит?

_________________
Показать сообщения:    

Текущее время: Сегодня 12:17

Часовой пояс: GMT



Вы не можете начинать темы
Вы не можете отвечать на сообщения
Вы не можете редактировать свои сообщения
Вы не можете удалять свои сообщения
Вы не можете голосовать в опросах
Вы не можете прикреплять файлы к сообщениям
Вы не можете скачивать файлы