Важное объявление!
У Нас Все раздачи мультитрекерные, при нуле пиров в релизах, можете смело вставать на закачку!
 
Автор Сообщение

HUNTER

Стаж:
4 года 4 месяца
Сообщений:
56765

Репутация: 101

[+] [-]
Вне форума [Профиль] [ЛС]

Тренер / McFarland, USA
Страна: США
Жанр: драма, спорт
Год выпуска: 2015
Продолжительность: 02:08:55
Перевод: Профессиональный (многоголосый закадровый) Blu-ray EUR
Cубтитры: Rus, Eng
Оригинальная аудиодорожка: английский
Режиссер: Ники Каро / Niki Caro
В ролях: Кевин Костнер, Рамиро Родригес, Карлос Праттс, Джонни Ортиз, Рафаэль Мартинез, Гектор Дюран, Серджо Авелар, Майкл Агеро, Диана-Мария Рива, Омар Лейва
Описание: История, основана на реальных событиях. В начале девяностых, в маленьком городке МакФарланд, профессиональный тренер создает команду по легкой атлетике из обычных сорванцов и мелких «хулиганов», и приводит эту команду до вершины спортивного Олимпа. Население МакФарланда - это 90 процентов латиноамериканцы, которые приехали в США под видом переселенцев и беженцев...

Тип релиза: BDRip 720p
Контейнер: MKV
Видео: MPEG-4 AVC, 6337 Кбит/с, 1280x538, 23,976 fps
Аудио: Rus, AC3, 640 kb/s (6 ch), 48 kHz
Аудио 2: Eng, DTS, 1510 kb/s (6 ch), 48 kHz
Формат субтитров: softsub (SRT)

MediaInfo

Format : Matroska
Format version : Version 2
File size : 7.81 GiB
Duration : 2h 9mn
Overall bit rate : 8 659 Kbps
Movie name : McFarland, USA (2015) - Release for HDCLUB
Encoded date : UTC 2015-06-14 19:43:20
Writing application : mkvmerge v3.4.0 ('Rapunzel') built on May 15 2010 09:38:20
Writing library : libebml v0.8.0 + libmatroska v0.9.0
Video
ID : 1
Format : AVC
Format/Info : Advanced Video Codec
Format profile : High@L4.1
Format settings, CABAC : Yes
Format settings, ReFrames : 12 frames
Codec ID : V_MPEG4/ISO/AVC
Duration : 2h 9mn
Bit rate : 6 337 Kbps
Width : 1 280 pixels
Height : 538 pixels
Display aspect ratio : 2.40:1
Original display aspect ratio : 2.40:1
Frame rate mode : Constant
Frame rate : 23.976 fps
Color space : YUV
Chroma subsampling : 4:2:0
Bit depth : 8 bits
Scan type : Progressive
Bits/(Pixel*Frame) : 0.384
Stream size : 5.71 GiB (73%)
Title : McFarland, USA (2015) - Release for HDCLUB
Writing library : x264 core 146 r0+2584 6cf85c6 t_mod_Custom [8-bit@all ]
Encoding settings : cabac=1 / ref=12 / deblock=1:-3:-3 / analyse=0x3:0x133 / me=umh / subme=10 / psy=1 / fade_compensate=0.00 / psy_rd=1.00:0.00 / mixed_ref=1 / me_range=24 / chroma_me=1 / trellis=2 / 8x8dct=1 / cqm=0 / deadzone=21,11 / fast_pskip=0 / chroma_qp_offset=-2 / threads=12 / lookahead_threads=2 / sliced_threads=0 / nr=0 / decimate=0 / interlaced=0 / bluray_compat=0 / constrained_intra=0 / fgo=0 / bframes=7 / b_pyramid=2 / b_adapt=2 / b_bias=0 / direct=3 / weightb=1 / open_gop=0 / weightp=2 / keyint=250 / keyint_min=23 / scenecut=40 / intra_refresh=0 / rc_lookahead=60 / rc=crf / mbtree=0 / crf=16.6000 / qcomp=0.60 / qpmin=0:0:0 / qpmax=69:69:69 / qpstep=4 / vbv_maxrate=62500 / vbv_bufsize=78125 / crf_max=0.0 / nal_hrd=none / filler=0 / ip_ratio=1.30 / pb_ratio=1.20 / aq=3:0.85 / aq-sensitivity=10.00 / aq-factor=1.00:1.00:1.00 / aq2=0 / aq3=0
Language : English
Default : Yes
Forced : No
Matrix coefficients : BT.709
Audio #1
ID : 2
Format : AC-3
Format/Info : Audio Coding 3
Mode extension : CM (complete main)
Format settings, Endianness : Big
Codec ID : A_AC3
Duration : 2h 9mn
Bit rate mode : Constant
Bit rate : 640 Kbps
Channel(s) : 6 channels
Channel positions : Front: L C R, Side: L R, LFE
Sampling rate : 48.0 KHz
Bit depth : 16 bits
Compression mode : Lossy
Stream size : 591 MiB (7%)
Title : AC3 5.1 @ 640 kbps - MVO, Blu-ray EUR
Language : Russian
Default : Yes
Forced : No
Audio #2
ID : 3
Format : DTS
Format/Info : Digital Theater Systems
Mode : 16
Format settings, Endianness : Big
Codec ID : A_DTS
Duration : 2h 9mn
Bit rate mode : Constant
Bit rate : 1 509 Kbps
Channel(s) : 6 channels
Channel positions : Front: L C R, Side: L R, LFE
Sampling rate : 48.0 KHz
Bit depth : 24 bits
Compression mode : Lossy
Stream size : 1.36 GiB (17%)
Title : DTS 5.1 @ 1536 kbps
Language : English
Default : No
Forced : No
Text #1
ID : 4
Format : UTF-8
Codec ID : S_TEXT/UTF8
Codec ID/Info : UTF-8 Plain Text
Title : Blu-ray EUR
Language : Russian
Default : No
Forced : No
Text #2
ID : 5
Format : UTF-8
Codec ID : S_TEXT/UTF8
Codec ID/Info : UTF-8 Plain Text
Title : SDH
Language : English
Default : No
Forced : No
Text #3
ID : 6
Format : UTF-8
Codec ID : S_TEXT/UTF8
Codec ID/Info : UTF-8 Plain Text
Title : SDH-COLORED
Language : English
Default : No
Forced : No
Menu
00:00:00.000 : en:00:00:00.000
00:05:48.348 : en:00:05:48.348
00:08:58.538 : en:00:08:58.538
00:13:24.846 : en:00:13:24.846
00:15:26.676 : en:00:15:26.676
00:19:21.369 : en:00:19:21.369
00:22:19.296 : en:00:22:19.296
00:25:50.758 : en:00:25:50.758
00:34:41.454 : en:00:34:41.454
00:41:11.177 : en:00:41:11.177
00:43:13.841 : en:00:43:13.841
00:48:04.924 : en:00:48:04.924
00:55:29.952 : en:00:55:29.952
00:57:24.316 : en:00:57:24.316
01:01:23.096 : en:01:01:23.096
01:06:03.459 : en:01:06:03.459
01:10:50.997 : en:01:10:50.997
01:14:02.855 : en:01:14:02.855
01:18:48.557 : en:01:18:48.557
01:28:10.535 : en:01:28:10.535
01:37:34.849 : en:01:37:34.849
01:40:24.644 : en:01:40:24.644
01:45:38.082 : en:01:45:38.082
01:53:12.744 : en:01:53:12.744
02:02:03.775 : en:02:02:03.775
02:04:34.509 : en:02:04:34.509

Скриншоты

Торрент-файл заменён на релиз с HDClub.

_________________
Показать сообщения:    

Текущее время: Сегодня 03:48

Часовой пояс: GMT



Вы не можете начинать темы
Вы не можете отвечать на сообщения
Вы не можете редактировать свои сообщения
Вы не можете удалять свои сообщения
Вы не можете голосовать в опросах
Вы не можете прикреплять файлы к сообщениям
Вы не можете скачивать файлы