Важное объявление!
У Нас Все раздачи мультитрекерные, при нуле пиров в релизах, можете смело вставать на закачку!
 
Автор Сообщение

HUNTER

Стаж:
4 года 4 месяца
Сообщений:
56798

Репутация: 101

[+] [-]
Вне форума [Профиль] [ЛС]

Трансформеры: Эпоха истребления / Transformers: Age of Extinction
Год выпуска: 2014
Страна: США, Китай
Студия: Paramaunt pictures
Жанр: фантастика, боевик, приключения
Продолжительность: 02:45:07
Перевод: Профессиональный (дублированный)
Русские субтитры: есть
Режиссер на русском: Майкл Бэй
Режиссер на английском: Michael Bay
В ролях: Марк Уолберг, Никола Пельтц, Джек Рейнор, Стэнли Туччи, Келси Грэммер, Титус Уэлливер, ТиДжей Миллер, Ли Бинбин, София Майлс, Питер Каллен
Описание: Автоботы и десептиконы оставили человечество собирать планету по кусочкам. Между тем группа могущественных бизнесменов и гениальных ученых пытается извлечь уроки из ошибок прошлого и улучшить технологии до такой степени, чтобы выйти за пределы контролируемого ранее. В это время другая группа — древних мощных трансформеров — берет Землю под прицел.
Качество: BDrip
Контейнер: MKV
Формат 3D: Half OverUnder / Вертикальная анаморфная стереопара
Порядок ракурсов: левый ракурс первый
Видео кодек: x264
Аудио кодек: AC3
Видео: 1920x1080 at 23.976 fps, x264@L4.1, crf, ~14300 kbps avg
Аудио №1: Russian: 48 kHz, AC3, 3/2 (L,C,R,l,r) + LFE ch, ~640.00 kbps avg |Дубляж, Blu-Ray CEE|
Аудио №2: Ukrainian: 48 kHz, AC3, 3/2 (L,C,R,l,r) + LFE ch, ~384.00 kbps avg |Дубляж, DVD R5|
Аудио №3: English: 48 kHz, AC3, 3/2 (L,C,R,l,r) + LFE ch, ~640.00 kbps avg
Субтитры: Russian (Forced, Full), Ukrainian (Forced, Full), English (Full, SDH, SDH-Colored)

MediaInfo

Общее
Уникальный идентификатор : 188333396456211591651284813401483336861 (0x8DAFB159C9E950E08DC03965285B5C9D)
Полное имя : G:\Transformers.Age.of.Extinction.3D.BluRay.Half-OU.Rus.Eng.HDCLUB.mkv
Формат : Matroska
Версия формата : Version 4 / Version 2
Размер файла : 18,8 Гбайт
Продолжительность : 2 ч. 45 м.
Общий поток : 16,3 Мбит/сек
Дата кодирования : UTC 2015-02-15 10:47:52
Программа кодирования : mkvmerge v7.6.0 ('Garden of Dreams') 64bit built on Feb 8 2015 13:04:34
Библиотека кодирования : libebml v1.3.1 + libmatroska v1.4.2
Attachements : cover
DURATION : 02:22:09.488000000
NUMBER_OF_FRAMES : 23
NUMBER_OF_BYTES : 960
_STATISTICS_WRITING_APP : mkvmerge v7.6.0 ('Garden of Dreams') 64bit built on Feb 8 2015 13:04:34
_STATISTICS_WRITING_DATE_UTC : 2015-02-15 10:47:52
_STATISTICS_TAGS : BPS DURATION NUMBER_OF_FRAMES NUMBER_OF_BYTES
Видео
Идентификатор : 1
Формат : AVC
Формат/Информация : Advanced Video Codec
Профиль формата : High@L4.1
MultiView_Count : 2
MultiView_Layout : Top-Bottom (left eye first)
Параметр CABAC формата : Да
Параметр ReFrames формата : 4 кадра
Идентификатор кодека : V_MPEG4/ISO/AVC
Продолжительность : 2 ч. 45 м.
Битрейт : 14,3 Мбит/сек
Ширина : 1920 пикселей
Высота : 1080 пикселей
Соотношение сторон : 16:9
Режим частоты кадров : Постоянный
Частота кадров : 23,976 кадра/сек
Цветовое пространство : YUV
Субдискретизация насыщенности : 4:2:0
Битовая глубина : 8 бит
Тип развёртки : Прогрессивная
Бит/(Пиксели*Кадры) : 0.288
Размер потока : 16,5 Гбайт (88%)
Заголовок : Transformers: Age of Extinction - Age of Extinction (2014) 3D HOU BDRip
Библиотека кодирования : x264 core 144 r2525kMod 40bb568
Настройки программы : cabac=1 / ref=4 / deblock=1:-3:-3 / analyse=0x3:0x113 / me=tesa / subme=10 / psy=1 / fade_compensate=0.00 / psy_rd=1.00:0.00 / mixed_ref=1 / me_range=64 / chroma_me=1 / trellis=2 / 8x8dct=1 / cqm=0 / deadzone=21,11 / fast_pskip=0 / chroma_qp_offset=-2 / threads=12 / lookahead_threads=3 / sliced_threads=0 / nr=0 / decimate=1 / interlaced=0 / bluray_compat=0 / constrained_intra=0 / fgo=0 / bframes=16 / b_pyramid=2 / b_adapt=2 / b_bias=0 / direct=3 / weightb=1 / open_gop=0 / weightp=2 / keyint=250 / keyint_min=23 / scenecut=40 / intra_refresh=0 / rc_lookahead=50 / rc=crf / mbtree=0 / crf=19.5000 / qcomp=0.60 / qpmin=0 / qpmax=69 / qpstep=4 / vbv_maxrate=50000 / vbv_bufsize=62500 / crf_max=0.0 / nal_hrd=none / filler=0 / frame-packing=4 / ip_ratio=1.40 / pb_ratio=1.30 / aq=1:1.00 / zones=3567,3826,b=1.2/7898,7977,b=1.15/10516,10563,b=1.1/12632,12693,b=1.15/12744,12803,b=1.15/12883,12915,b=1.2/12956,13078,b=1.15/13122,13251,b=1.2/13405,13501,b=1.2/20945,28095,b=1.3/40076,40343,b=1.2/40556,40939,b=1.2/44048,44143,b=1.2/53381,53432,b=1.3/55036,55093,b=1.3/55912,56572,b=1.3/56829,57041,b=1.3/58904,58942,b=1.3/59072,59099,b=1.2/59312,59351,b=1.3/59736,59889,b=1.3/60510,60678,b=1.3/60814,60880,b=1.3/61175,61234,b=1.3/61506,61586,b=1.3/61889,61923,b=1.3/62002,62022,b=1.3/62283,62309,b=1.3/62816,63094,b=1.3/64775,65461,b=1.2/65696,66366,b=1.3/80200,80406,b=1.3/91515,91668,b=1.3/97550,97726,b=1.3/105787,106181,b=1.3/106313,106432,b=1.3/106565,106672,b=1.3/106762,106866,b=1.3/107257,107695,b=1.3/109836,110356,b=1.3/111038,111070,b=1.3/111415,111460,b=1.3/111838,112829,b=1.3/113108,115439,b=1.3/115615,115803,b=1.4/115992,120399,b=1.3/121313,124769,b=1.3/125368,150460,b=1.3/160903,161280,b=1.3/165519,166349,b=1.3/167903,169593,b=1.3/178482,179543,b=1.2/179943,179995,b=1.2/181577,181769,b=1.2/183183,183328,b=1.2/188010,188668,b=1.4/189149,226085,b=1.3/226086,237538,b=0.2
Язык : English
Default : Да
Forced : Нет
Аудио #1
Идентификатор : 2
Формат : AC-3
Формат/Информация : Audio Coding 3
Расширение режима : CM (complete main)
Параметр Endianness формата : Big
Идентификатор кодека : A_AC3
Продолжительность : 2 ч. 45 м.
Вид битрейта : Постоянный
Битрейт : 640 Кбит/сек
Каналы : 6 каналов
Расположение каналов : Front: L C R, Side: L R, LFE
Частота : 48,0 КГц
Битовая глубина : 16 бит
Метод сжатия : С потерями
Размер потока : 756 Мбайт (4%)
Заголовок : [Blu-ray CEE] Dub - AC3 5.1 @ 640 kbps
Язык : Russian
Default : Да
Forced : Нет
Аудио #2
Идентификатор : 3
Формат : AC-3
Формат/Информация : Audio Coding 3
Расширение режима : CM (complete main)
Параметр Endianness формата : Big
Идентификатор кодека : A_AC3
Продолжительность : 2 ч. 45 м.
Вид битрейта : Постоянный
Битрейт : 384 Кбит/сек
Каналы : 6 каналов
Расположение каналов : Front: L C R, Side: L R, LFE
Частота : 48,0 КГц
Битовая глубина : 16 бит
Метод сжатия : С потерями
Размер потока : 454 Мбайт (2%)
Заголовок : [DVD R5] Dub - AC3 5.1 @ 384 kbps
Язык : Ukrainian
Default : Нет
Forced : Нет
Аудио #3
Идентификатор : 4
Формат : AC-3
Формат/Информация : Audio Coding 3
Расширение режима : CM (complete main)
Параметр Endianness формата : Big
Идентификатор кодека : A_AC3
Продолжительность : 2 ч. 45 м.
Вид битрейта : Постоянный
Битрейт : 640 Кбит/сек
Каналы : 6 каналов
Расположение каналов : Front: L C R, Side: L R, LFE
Частота : 48,0 КГц
Битовая глубина : 16 бит
Метод сжатия : С потерями
Размер потока : 756 Мбайт (4%)
Заголовок : [Blu-ray CEE] AC3 5.1 @ 640 kbps
Язык : English
Default : Нет
Forced : Нет
Текст #1
Идентификатор : 5
Формат : UTF-8
Идентификатор кодека : S_TEXT/UTF8
Идентификатор кодека/Информация : UTF-8 Plain Text
Заголовок : [SRT/UTF8] Forced
Язык : Russian
Default : Да
Forced : Нет
Текст #2
Идентификатор : 6
Формат : UTF-8
Идентификатор кодека : S_TEXT/UTF8
Идентификатор кодека/Информация : UTF-8 Plain Text
Заголовок : [SRT/UTF8] Forced
Язык : Ukrainian
Default : Нет
Forced : Нет
Текст #3
Идентификатор : 7
Формат : UTF-8
Идентификатор кодека : S_TEXT/UTF8
Идентификатор кодека/Информация : UTF-8 Plain Text
Заголовок : [SRT/UTF8] Full
Язык : Russian
Default : Нет
Forced : Нет
Текст #4
Идентификатор : 8
Формат : UTF-8
Идентификатор кодека : S_TEXT/UTF8
Идентификатор кодека/Информация : UTF-8 Plain Text
Заголовок : [SRT/UTF8] Full
Язык : Ukrainian
Default : Нет
Forced : Нет
Текст #5
Идентификатор : 9
Формат : UTF-8
Идентификатор кодека : S_TEXT/UTF8
Идентификатор кодека/Информация : UTF-8 Plain Text
Заголовок : [SRT/UTF8] Full
Язык : English
Default : Нет
Forced : Нет
Текст #6
Идентификатор : 10
Формат : UTF-8
Идентификатор кодека : S_TEXT/UTF8
Идентификатор кодека/Информация : UTF-8 Plain Text
Заголовок : [SRT/UTF8] Full SDH №1
Язык : English
Default : Нет
Forced : Нет
Текст #7
Идентификатор : 11
Формат : UTF-8
Идентификатор кодека : S_TEXT/UTF8
Идентификатор кодека/Информация : UTF-8 Plain Text
Заголовок : [SRT/UTF8] Full SDH №1
Язык : English
Default : Нет
Forced : Нет
Текст #8
Идентификатор : 12
Формат : UTF-8
Идентификатор кодека : S_TEXT/UTF8
Идентификатор кодека/Информация : UTF-8 Plain Text
Заголовок : [SRT/UTF8] Full SDH Colored
Язык : English
Default : Нет
Forced : Нет
Текст #9
Идентификатор : 13
Формат : VobSub
Режим смешивания : zlib
Идентификатор кодека : S_VOBSUB
Идентификатор кодека/Информация : The same subtitle format used on DVDs
Заголовок : [VobSub] Forced 3D
Язык : Russian
Default : Нет
Forced : Нет
Меню
00:00:00.000 : :Chapter 1
00:06:51.577 : :Chapter 2
00:14:33.581 : :Chapter 3
00:21:37.462 : :Chapter 4
00:30:13.394 : :Chapter 5
00:38:45.990 : :Chapter 6
00:46:08.056 : :Chapter 7
00:51:39.513 : :Chapter 8
00:59:09.337 : :Chapter 9
01:07:48.647 : :Chapter 10
01:15:14.551 : :Chapter 11
01:23:25.291 : :Chapter 12
01:29:14.724 : :Chapter 13
01:37:16.956 : :Chapter 14
01:44:35.435 : :Chapter 15
01:51:25.053 : :Chapter 16
01:57:47.935 : :Chapter 17
02:04:48.481 : :Chapter 18
02:12:35.864 : :Chapter 19
02:21:04.205 : :Chapter 20
02:28:48.669 : :Chapter 21
02:37:09.628 : :Chapter 22

Скриншоты



Релиз


_________________
Показать сообщения:    

Текущее время: Сегодня 22:40

Часовой пояс: GMT



Вы не можете начинать темы
Вы не можете отвечать на сообщения
Вы не можете редактировать свои сообщения
Вы не можете удалять свои сообщения
Вы не можете голосовать в опросах
Вы не можете прикреплять файлы к сообщениям
Вы не можете скачивать файлы