Важное объявление!
У Нас Все раздачи мультитрекерные, при нуле пиров в релизах, можете смело вставать на закачку!
 
Автор Сообщение

HUNTER

Стаж:
4 года 4 месяца
Сообщений:
56765

Репутация: 101

[+] [-]
Вне форума [Профиль] [ЛС]

--Трансформеры: Эпоха истребления / Transformers: Age of Extinction--«Сражаться вместе... Или погибнуть вместе»--2-Disc Edition-
Страна: США, Китай
Студия: Paramount Pictures, Hasbro, Di Bonaventura Pictures
Жанр: фантастика, боевик, приключения
Год выпуска: 2014
Продолжительность: 02:45:07-Перевод: Профессиональный (дублированный) Лицензия, Blu-ray CEE
Cубтитры: Арабские, болгарские, чешские, греческие, эстонские, английские, иврит, исландские, латвийские, литовские, венгерские, польские, португальские, русские, румынские, словакские, турецкие, украинские
Оригинальная аудиодорожка: английский-Режиссер: Майкл Бэй / Michael Bay-В ролях: Марк Уолберг, Никола Пельтц, Джек Рейнор, Стэнли Туччи, Келси Грэммер, Титус Уэлливер, ТиДжей Миллер, Ли Бинбин, София Майлс, Питер Каллен
Описание: Автоботы и десептиконы оставили человечество собирать планету по кусочкам. Между тем группа могущественных бизнесменов и гениальных ученых пытается извлечь уроки из ошибок прошлого и улучшить технологии до такой степени, чтобы выйти за пределы контролируемого ранее. В это время другая группа — древних мощных трансформеров — берет Землю под прицел.
Меню: Русский, анимированное, озвученное-|Сэмпл|IMDB|КиноПоиск|


Тип релиза: Blu-ray disc
Контейнер: BDMV
Видео: MPEG-4 AVC Video 24262 kbps 1080p / 23,976 fps / 16:9 / High Profile 4.1
Аудио: Английский (Оригинал), Dolby TrueHD, 8ch (L,C,R, Ls, Rs, Lb, Rb +LFE), 4388 кбит/с |AC3 Embedded: 5.1 / 48 kHz / 640 kbps / DN -4dB|
Аудио 2: Чешский (Дублированный), AC3, 6ch (L, C, R, Ls, Rs +LFE), 640 кбит/с
Аудио 3: Венгерский (Дублированный), AC3, 6ch (L, C, R, Ls, Rs +LFE), 640 кбит/с
Аудио 4: Польский (Дублированный), AC3, 6ch (L, C, R, Ls, Rs +LFE), 640 кбит/с
Аудио 5: Русский (Дублированный), AC3, 6ch (L, C, R, Ls, Rs +LFE), 640 кбит/с |Лицензия, Blu-ray CEE |
Аудио 6: Турецкий (Дублированный), AC3, 6ch (L, C, R, Ls, Rs +LFE), 640 кбит/с
Формат субтитров: prerendered (Blu-ray/PGS/SUP)-Бонус-диск
Видео: MPEG-4 AVC Video 28955 kbps 1080p / 23,976 fps / 16:9 / High Profile 4.1
Аудио: Английский (Оригинал), Dolby Digital Audio English 640 kbps 5.1 / 48 kHz / 640 kbps-торрент фаил перезалит 22.11.2014
-

MediaInfo №1

DISC INFO:
Disc Title: Transformers.Age.of.Extinction.2014.MULTi.COMPLETE.BLURAY-HDCLUB
Disc Size: 45 131 396 753 bytes
Protection: AACS
BD-Java: Yes
BDInfo: 0.5.8
PLAYLIST REPORT:
Name: 00800.MPLS
Length: 2:45:07.314 (h:m:s.ms)
Size: 44 626 544 640 bytes
Total Bitrate: 36,04 Mbps
VIDEO:
Codec Bitrate Description
----- ------- -----------
MPEG-4 AVC Video 24262 kbps 1080p / 23,976 fps / 16:9 / High Profile 4.1
AUDIO:
Codec Language Bitrate Description
----- -------- ------- -----------
Dolby TrueHD Audio English 4388 kbps 7.1 / 48 kHz / 4388 kbps / 24-bit (AC3 Embedded: 5.1 / 48 kHz / 640 kbps / DN -4dB)
Dolby Digital Audio Czech 640 kbps 5.1 / 48 kHz / 640 kbps / DN -4dB
Dolby Digital Audio Hungarian 640 kbps 5.1 / 48 kHz / 640 kbps / DN -4dB
Dolby Digital Audio Polish 640 kbps 5.1 / 48 kHz / 640 kbps / DN -4dB
Dolby Digital Audio Russian 640 kbps 5.1 / 48 kHz / 640 kbps / DN -4dB
Dolby Digital Audio Turkish 640 kbps 5.1 / 48 kHz / 640 kbps / DN -4dB
SUBTITLES:
Codec Language Bitrate Description
----- -------- ------- -----------
Presentation Graphics Arabic 17,374 kbps
Presentation Graphics Bulgarian 30,571 kbps
Presentation Graphics Czech 27,191 kbps
Presentation Graphics Greek 33,931 kbps
Presentation Graphics Estonian 33,391 kbps
Presentation Graphics English 36,336 kbps
Presentation Graphics Hebrew 23,765 kbps
Presentation Graphics Icelandic 30,748 kbps
Presentation Graphics Latvian 33,544 kbps
Presentation Graphics Lithuanian 30,064 kbps
Presentation Graphics Hungarian 29,632 kbps
Presentation Graphics Polish 29,786 kbps
Presentation Graphics Portuguese 33,852 kbps
Presentation Graphics Russian 33,128 kbps
Presentation Graphics Romanian 28,725 kbps
Presentation Graphics Slovak 29,247 kbps
Presentation Graphics Turkish 32,262 kbps
Presentation Graphics Ukrainian 35,731 kbps
FILES:
Name Time In Length Size Total Bitrate
---- ------- ------ ---- -------------
00800.M2TS 0:00:00.000 2:45:07.314 44 626 544 640 36 035

MediaInfo №2

DISC INFO:
Disc Title: Transformers.Age.Of.Extinction.2014.BONUS.COMPLETE.BLURAY-HDCLUB
Disc Size: 47 421 137 203 bytes
Protection: AACS
BD-Java: Yes
BDInfo: 0.5.8
PLAYLIST REPORT:
Name: 00251.MPLS
Length: 2:02:50.154 (h:m:s.ms)
Size: 30 241 830 912 bytes
Total Bitrate: 32,83 Mbps
VIDEO:
Codec Bitrate Description
----- ------- -----------
MPEG-4 AVC Video 28955 kbps 1080p / 23,976 fps / 16:9 / High Profile 4.1
AUDIO:
Codec Language Bitrate Description
----- -------- ------- -----------
Dolby Digital Audio English 640 kbps 5.1 / 48 kHz / 640 kbps
SUBTITLES:
Codec Language Bitrate Description
----- -------- ------- -----------
Presentation Graphics Arabic 36,280 kbps
Presentation Graphics Indonesian 72,026 kbps
Presentation Graphics Malay 72,534 kbps
Presentation Graphics Bulgarian 68,650 kbps
Presentation Graphics Chinese 48,508 kbps
Presentation Graphics Czech 56,633 kbps
Presentation Graphics Greek 70,058 kbps
Presentation Graphics Estonian 61,593 kbps
Presentation Graphics English 65,450 kbps
Presentation Graphics Hebrew 44,587 kbps
Presentation Graphics Hindi 53,499 kbps
Presentation Graphics Icelandic 68,503 kbps
Presentation Graphics Korean 43,836 kbps
Presentation Graphics Latvian 59,966 kbps
Presentation Graphics Lithuanian 64,826 kbps
Presentation Graphics Hungarian 61,283 kbps
Presentation Graphics Chinese 51,806 kbps
Presentation Graphics Polish 60,679 kbps
Presentation Graphics Portuguese 68,312 kbps
Presentation Graphics Russian 70,325 kbps
Presentation Graphics Romanian 59,438 kbps
Presentation Graphics Chinese 50,996 kbps
Presentation Graphics Slovak 62,633 kbps
Presentation Graphics Tamil 76,889 kbps
Presentation Graphics Thai 56,750 kbps
Presentation Graphics Turkish 64,366 kbps
Presentation Graphics Ukrainian 69,068 kbps
FILES:
Name Time In Length Size Total Bitrate
---- ------- ------ ---- -------------
01062.M2TS 0:00:00.000 0:15:53.744 4 037 566 464 33 867
01063.M2TS 0:15:53.744 0:13:29.016 2 594 660 352 25 657
01064.M2TS 0:29:22.760 0:11:22.765 2 882 764 800 33 778
01065.M2TS 0:40:45.526 0:28:45.557 7 275 466 752 33 730
01066.M2TS 1:09:31.083 0:11:03.996 2 799 323 136 33 727
01067.M2TS 1:20:35.080 0:12:54.023 3 271 987 200 33 818
01068.M2TS 1:33:29.103 0:06:10.536 1 567 057 920 33 833
01069.M2TS 1:39:39.640 0:22:32.976 5 721 489 408 33 831
01077.M2TS 2:02:12.616 0:00:37.537 91 514 880 19 504

Скриншоты меню

-

Скриншоты

-

скриншоты с субтитрами: Русские / Английские

-

Бонусы

  • Bay on Action (1080p, 10:45): The director discusses his frenetic style, the cinematic trickery he uses, the hectic pacing of his style, his filmmaking approach, shooting in Hong Kong and Detroit, crafting the final battle, the film's style, and more.
  • Evolution with Extinction (1080p): An eight-part making-of supplement.
    Generation 2 (15:53): A look at how the film differs from the others but remains within the same universe; introducing new Transformers; building a father-daughter story; characters; casting, performances, and the qualities the cast brought to the film; the picture's scale; and humor in the film.
    Drive Like Hell (13:29): This piece takes a closer look at a number of the vehicles depicted in the film.
    Small Town, Big Movie (11:22): Setting the early parts of the film in Texas, scouting locations and filming locations, production design, robot design and implementation, and shooting action scenes on the location.
    Shadow Protocol Activated (28:45): Chevrolet's participation in the film and the access the company allows the filmmakers, shooting locations in Detroit, alien spacecraft set details, making one of the film's biggest explosions, and filming in and around Chicago and detailing sets and scenes crafted there.
    The Last Stand (11:03): A look at shooting Detroit for Hong Kong.
    The People's Republic (12:54): This supplement takes viewers behind-the-scenes of the Hong Kong shoot, including the apartment rooftop chase, the challenges and rewards of the shoot and location, casting Chinese actors, shooting outside the city and on The Great Wall, and more.
    Rise of the Dinobots (6:10): A look at bringing the fan-favorite Transformers into the franchise and digitally creating them for the film.
    The Finishing Touch (23:10): A strong piece that takes the audience into the editing room, Michael Bay's Florida house, and sound studios for a look at editing, digital effects work, voice work, scoring, sound effects, and the film's Hong Kong premiere.

  • Just Another Giant Effin' Movie (1080p, 10:03): A light piece that offers a collection of fun moments from the shoot.
  • A Spark of Design (1080p, 15:24): This supplement takes viewers into the Rhode Island Hasbro headquarters for a look at character toy design and creation, with a focus on Grimlock.
  • T.J. Miller: Farm Hippie (1080p, 19:43): A fun piece that features the actor visiting with Mark Wahlberg, Kelsey Grammer, and Michael Bay.
  • Trailers (1080p).
    Trailer 1 (2:34).
    Trailer 2 (2:34).
    Kre-O Transformers: Take Us Through the Movies! (3:42): A fun little take on the movie made with Lego-like toys.
    Angry Birds Transformers: Origin Story (1:16): A fun 1980s style/VHS quality Angry Birds take on the franchise.

_________________
Показать сообщения:    

Текущее время: Сегодня 19:05

Часовой пояс: GMT



Вы не можете начинать темы
Вы не можете отвечать на сообщения
Вы не можете редактировать свои сообщения
Вы не можете удалять свои сообщения
Вы не можете голосовать в опросах
Вы не можете прикреплять файлы к сообщениям
Вы не можете скачивать файлы