Важное объявление!
У Нас Все раздачи мультитрекерные, при нуле пиров в релизах, можете смело вставать на закачку!
 
Автор Сообщение

HUNTER

Стаж:
4 года 4 месяца
Сообщений:
56809

Репутация: 101

[+] [-]
Вне форума [Профиль] [ЛС]

Трансформеры: Эпоха истребления / Transformers: Age of Extinction
--
Год выпуска: 2014
Страна: США
Жанр: Фантастика, боевик, приключения
Продолжительность: 02:45:18
Перевод: Дублированный [Чистый звук]
Субтитры: Нет
В ролях: Марк Уолберг, Никола Пельтц, Джек Рейнор, Стэнли Туччи, Келси Грэммер, Титус Уэлливер, ТиДжей Миллер, Ли Бинбин, София Майлс, Питер Каллен
Режиссёр: Майкл Бэй

Автоботы и десептиконы покинули планету, оставив человечество собирать ее по кусочкам. Между тем группа могущественных бизнесменов и гениальных ученых пытается извлечь уроки из ошибок прошлого и улучшить технологии до такой степени, чтобы выйти за пределы контролируемого ранее. В это время другая группа — древних мощных трансформеров — берет Землю под прицел.-- Качество: HDRip-AVC
Формат: MP4
Видео кодек: H.264
Аудио кодек: AAC
Видео: 960x400 at 23.976 fps, AVC at 1 900 kbps
Аудио: АAС, 2.0 канала, 192 kbps, 48,0 Кгц
--

Рейтинг

МедиаИнфо

Формат : MPEG-4
Профиль формата : Base Media
Идентификатор кодека : isom
Размер файла : 2,42 Гбайт
Продолжительность : 2 ч. 45 м.
Режим общего битрейта : Переменный
Общий поток : 2093 Кбит/сек
Дата кодирования : UTC 2014-09-24 10:36:29
Дата пометки : UTC 2014-09-24 10:36:29
Видео
Идентификатор : 1
Формат : AVC
Формат/Информация : Advanced Video Codec
Профиль формата : High@L4.1
Параметр CABAC формата : Да
Параметр ReFrames формата : 8 кадров
Идентификатор кодека : avc1
Идентификатор кодека/Информация : Advanced Video Coding
Продолжительность : 2 ч. 45 м.
Битрейт : 1900 Кбит/сек
Максимальный битрейт : 9088 Кбит/сек
Ширина : 960 пикселей
Высота : 400 пикселей
Соотношение сторон : 2,40:1
Режим частоты кадров : Постоянный
Частота кадров : 23,976 кадра/сек
Цветовое пространство : YUV
Субдискретизация насыщенности : 4:2:0
Битовая глубина : 8 бит
Тип развёртки : Прогрессивная
Бит/(Пиксели*Кадры) : 0.206
Размер потока : 2,19 Гбайт (91%)
Библиотека кодирования : x264 core 130 r2273 b3065e6
Настройки программы : cabac=1 / ref=8 / deblock=1:-2:-2 / analyse=0x3:0x133 / me=umh / subme=11 / psy=1 / psy_rd=1.00:0.10 / mixed_ref=1 / me_range=32 / chroma_me=1 / trellis=2 / 8x8dct=1 / cqm=0 / deadzone=21,11 / fast_pskip=0 / chroma_qp_offset=-3 / threads=6 / lookahead_threads=1 / sliced_threads=0 / nr=0 / decimate=1 / interlaced=0 / bluray_compat=0 / constrained_intra=0 / bframes=3 / b_pyramid=2 / b_adapt=2 / b_bias=0 / direct=3 / weightb=1 / open_gop=0 / weightp=2 / keyint=240 / keyint_min=23 / scenecut=40 / intra_refresh=0 / rc_lookahead=50 / rc=2pass / mbtree=1 / bitrate=1900 / ratetol=1.0 / qcomp=0.60 / qpmin=0 / qpmax=69 / qpstep=4 / cplxblur=20.0 / qblur=0.5 / ip_ratio=1.40 / aq=1:1.00
Дата кодирования : UTC 2014-09-24 10:36:29
Дата пометки : UTC 2014-09-24 10:37:41
Аудио
Идентификатор : 2
Формат : AAC
Формат/Информация : Advanced Audio Codec
Профиль формата : LC
Идентификатор кодека : 40
Продолжительность : 2 ч. 45 м.
Вид битрейта : Переменный
Битрейт : 192 Кбит/сек
Максимальный битрейт : 201 Кбит/сек
Каналы : 2 канала
Расположение каналов : Front: L R
Частота : 48,0 КГц
Метод сжатия : С потерями
Размер потока : 227 Мбайт (9%)

Скриншоты

-Источник:

_________________
Показать сообщения:    

Текущее время: Сегодня 18:06

Часовой пояс: GMT



Вы не можете начинать темы
Вы не можете отвечать на сообщения
Вы не можете редактировать свои сообщения
Вы не можете удалять свои сообщения
Вы не можете голосовать в опросах
Вы не можете прикреплять файлы к сообщениям
Вы не можете скачивать файлы