Важное объявление!
У Нас Все раздачи мультитрекерные, при нуле пиров в релизах, можете смело вставать на закачку!
 
Автор Сообщение

HUNTER

Стаж:
4 года 4 месяца
Сообщений:
56734

Репутация: 101

[+] [-]
Вне форума [Профиль] [ЛС]

Трансформеры / The Transformers: The Movie
Страна: США, Япония
Жанр: фантастика, боевик, приключения
Продолжительность: 01:25:01
Год выпуска: 1986
Перевод 1: Любительский (многоголосый закадровый) SHIZA Project
Перевод 2: Одноголосый закадровый VHS
Русские субтитры: есть
Режиссёр: Нельсон Шин / Nelson Shin
Описание: … Автоботы и Десептиконы продолжают войну за контроль над территорией в 2005 году. Войска Мегатрона завоевали Кибертрон, но Автоботы готовы это изменить. В масштабном конфликте старые герои падут и новые восстанут, в то время как планета — демон Юникрон будет приближаться к их родному миру…
Дополнительная информация: Украинский перевод и перевод с VHS с раздачи dragomire, в переводах устранен рассинхрон.
Семпл: http://sendfile.su/1195243
Качество: BDRip 720p Исходник
Формат: MKV
Видео: 1280x720 (16:9), 23.976 fps, AVC, ~12.0 Mbps, 0.543 bits/pixel
Аудио 1: Russian, 48.0 KHz, AC3, 2 ch, 192 Kbps - SHIZA Project
Аудио 2: Russian, 48.0 KHz, AC3, 2 ch, 192 Kbps - VHS
Аудио 3: Ukrainian, 48.0 KHz, AC3, 2 ch, 192 Kbps - Solarice
Аудио 4: English, 48.0 KHz, AC3, 2 ch, 224 Kbps
Субтитры: русские, украинские, английские

Log

avs4x264.exe: -L x264_64.exe --pass 2 --bitrate 12000 --preset medium --level 4.1 --ref 9 --deblock -1:-1 --merange 32 --bframes 10 --direct auto --b-adapt 2 --trellis 2 --no-fast-pskip --psy-rd 1.00:0.10 --partitions all --subme 10 --me umh --rc-lookahead 50 --sar 1:1 --stats
raw [info]: 1280x720p 1:1 @ 24000/1001 fps (cfr)
x264 [info]: using SAR=1/1
x264 [info]: using cpu capabilities: MMX2 SSE2Fast LZCNT
x264 [info]: profile High, level 4.1
x264 [info]: frame I:1080 Avg QP:16.08 size:251058
x264 [info]: frame P:32129 Avg QP:19.20 size:108838
x264 [info]: frame B:89091 Avg QP:21.23 size: 43575
x264 [info]: consecutive B-frames: 4.0% 8.4% 11.1% 29.6% 17.8% 15.9% 6.1% 2.4% 2.1% 1.7% 0.8%
x264 [info]: mb I I16..4: 18.0% 46.9% 35.1%
x264 [info]: mb P I16..4: 1.6% 27.5% 4.8% P16..4: 24.1% 23.1% 15.1% 1.4% 0.5% skip: 1.8%
x264 [info]: mb B I16..4: 0.2% 5.1% 0.5% B16..8: 35.1% 17.4% 6.5% direct:16.1% skip:19.1% L0:37.3% L1:41.0% BI:21.7%
x264 [info]: 8x8 transform intra:80.8% inter:54.2%
x264 [info]: direct mvs spatial:97.5% temporal:2.5%
x264 [info]: coded y,uvDC,uvAC intra: 94.9% 94.6% 85.1% inter: 54.3% 51.2% 25.6%
x264 [info]: i16 v,h,dc,p: 32% 12% 31% 25%
x264 [info]: i8 v,h,dc,ddl,ddr,vr,hd,vl,hu: 9% 8% 14% 11% 12% 11% 11% 12% 13%
x264 [info]: i4 v,h,dc,ddl,ddr,vr,hd,vl,hu: 10% 9% 5% 10% 14% 13% 13% 12% 13%
x264 [info]: i8c dc,h,v,p: 50% 20% 15% 16%
x264 [info]: Weighted P-Frames: Y:12.6% UV:7.1%
x264 [info]: ref P L0: 37.6% 12.4% 19.1% 7.4% 6.8% 4.6% 4.7% 3.0% 3.3% 1.0% 0.1%
x264 [info]: ref B L0: 74.8% 13.4% 4.3% 2.6% 1.7% 1.7% 0.9% 0.6%
x264 [info]: ref B L1: 94.8% 5.2%
x264 [info]: kb/s:11998.08
x264 [total]: encoded 122300 frames, 3.22 fps, 11998.08 kb/s

Сравнение - SunandStorm | Source | Dreven

Перевод такой же как и SHIZA Project, озвучка одноголосая.


Подробные технические данные

GeneralUnique ID : 252749043982888235063905350409809590600 (0xBE25B1FA14D59FB9B7EE96835C707948)Complete name : C:\The Transformers - The Movie. BDRip 720p.mkvFormat : MatroskaFormat version : Version 4 / Version 2File size : 7.60 GiBDuration : 1h 25mnOverall bit rate : 12.8 MbpsEncoded date : UTC 2016-01-19 05:57:42Writing application : mkvmerge v8.8.0 ('Wind at my back') 64bitWriting library : libebml v1.3.3 + libmatroska v1.4.4DURATION : 01:17:50.510000000NUMBER_OF_FRAMES : 506NUMBER_OF_BYTES : 23255_STATISTICS_WRITING_APP : mkvmerge v8.8.0 ('Wind at my back') 64bit_STATISTICS_WRITING_DATE_UT : 2016-01-19 05:57:42_STATISTICS_TAGS : BPS DURATION NUMBER_OF_FRAMES NUMBER_OF_BYTES
VideoID : 1Format : AVCFormat/Info : Advanced Video CodecFormat profile : High@L4.1Format settings, CABAC : YesFormat settings, ReFrames : 9 framesCodec ID : V_MPEG4/ISO/AVCDuration : 1h 25mnBit rate : 12.0 MbpsWidth : 1 280 pixelsHeight : 720 pixelsDisplay aspect ratio : 16:9Frame rate mode : ConstantFrame rate : 23.976 fpsColor space : YUVChroma subsampling : 4:2:0Bit depth : 8 bitsScan type : ProgressiveBits/(Pixel*Frame) : 0.543Stream size : 6.98 GiB (92%)Writing library : x264 core 146 r2538 121396cEncoding settings : cabac=1 / ref=9 / deblock=1:-1:-1 / analyse=0x3:0x133 / me=umh / subme=10 / psy=1 / psy_rd=1.00:0.10 / mixed_ref=1 / me_range=32 / chroma_me=1 / trellis=2 / 8x8dct=1 / cqm=0 / deadzone=21,11 / fast_pskip=0 / chroma_qp_offset=-3 / threads=6 / lookahead_threads=1 / sliced_threads=0 / nr=0 / decimate=1 / interlaced=0 / bluray_compat=0 / constrained_intra=0 / bframes=10 / b_pyramid=2 / b_adapt=2 / b_bias=0 / direct=3 / weightb=1 / open_gop=0 / weightp=2 / keyint=250 / keyint_min=23 / scenecut=40 / intra_refresh=0 / rc_lookahead=50 / rc=2pass / mbtree=1 / bitrate=12000 / ratetol=1.0 / qcomp=0.60 / qpmin=0 / qpmax=69 / qpstep=4 / cplxblur=20.0 / qblur=0.5 / ip_ratio=1.40 / aq=1:1.00Language : EnglishDefault : YesForced : No
Audio #1ID : 2Format : AC-3Format/Info : Audio Coding 3Mode extension : CM (complete main)Format settings, Endianness : BigCodec ID : A_AC3Duration : 1h 25mnBit rate mode : ConstantBit rate : 192 KbpsChannel(s) : 2 channelsChannel positions : Front: L RSampling rate : 48.0 KHzCompression mode : LossyStream size : 117 MiB (1%)Title : SHIZA ProjectLanguage : RussianDefault : YesForced : No
Audio #2ID : 3Format : AC-3Format/Info : Audio Coding 3Mode extension : CM (complete main)Format settings, Endianness : BigCodec ID : A_AC3Duration : 1h 25mnBit rate mode : ConstantBit rate : 192 KbpsChannel(s) : 2 channelsChannel positions : Front: L RSampling rate : 48.0 KHzCompression mode : LossyStream size : 117 MiB (1%)Language : RussianDefault : NoForced : No
Audio #3ID : 4Format : AC-3Format/Info : Audio Coding 3Format profile : Dolby DigitalMode extension : CM (complete main)Format settings, Endianness : BigCodec ID : A_AC3Duration : 1h 25mnBit rate mode : ConstantBit rate : 192 KbpsChannel(s) : 2 channelsChannel positions : Front: L RSampling rate : 48.0 KHzCompression mode : LossyStream size : 117 MiB (1%)Title : SolariceLanguage : UkrainianDefault : NoForced : No
Audio #4ID : 5Format : AC-3Format/Info : Audio Coding 3Mode extension : CM (complete main)Format settings, Endianness : BigCodec ID : A_AC3Duration : 1h 25mnBit rate mode : ConstantBit rate : 224 KbpsChannel(s) : 2 channelsChannel positions : Front: L RSampling rate : 48.0 KHzCompression mode : LossyStream size : 136 MiB (2%)Language : EnglishDefault : NoForced : No
Text #1ID : 6Format : UTF-8Codec ID : S_TEXT/UTF8Codec ID/Info : UTF-8 Plain TextLanguage : RussianDefault : NoForced : No
Text #2ID : 7Format : UTF-8Codec ID : S_TEXT/UTF8Codec ID/Info : UTF-8 Plain TextLanguage : UkrainianDefault : NoForced : No
Text #3ID : 8Format : UTF-8Codec ID : S_TEXT/UTF8Codec ID/Info : UTF-8 Plain TextLanguage : EnglishDefault : NoForced : No

Скриншоты


_________________
Показать сообщения:    

Текущее время: Сегодня 08:55

Часовой пояс: GMT



Вы не можете начинать темы
Вы не можете отвечать на сообщения
Вы не можете редактировать свои сообщения
Вы не можете удалять свои сообщения
Вы не можете голосовать в опросах
Вы не можете прикреплять файлы к сообщениям
Вы не можете скачивать файлы