Важное объявление!
У Нас Все раздачи мультитрекерные, при нуле пиров в релизах, можете смело вставать на закачку!
 
Автор Сообщение

HUNTER

Стаж:
4 года 4 месяца
Сообщений:
56842

Репутация: 101

[+] [-]
Вне форума [Профиль] [ЛС]

Трансерфинг. Изнанка реальности. I-VI части-

Год выпуска: 2009
Страна: Россия
Сайт производителя: zelands.ru
Тематика: Психология, Эзотерика
Тип материала: Обучающее видео-Продолжительность: 04:41:00
Автор: Вадим Зеланд-Язык: Русский
Субтитры: отсутствуют-Описание: Реальность существует независимо от вас... До тех пор, пока вы с этим согласны.
Наш мир не является тем, чем он привык нам казаться. Материальная действительность - это лишь внешнее, видимое, проявление реальности. Но что скрывается с другой стороны, с изнанки?
В этом фильме перед вами откроется реальность в незнакомом обличье. Каждый из нас, не осознавая того, строит отдельный слой своего мира, в котором ему потом и приходится существовать. Своей волей вы способны создать для себя любой мир. Необходимо только знать как.
Для этого существует Трансерфинг - техника управления реальностью, которую успешно применяют уже миллионы людей.
-Качество: DVDRip
Формат: AVI
Видео кодек: DivX
Аудио кодек: MP3
Видео: 640x496 (1.29:1), 25 fps, DivX Codec 5.x or 6.x ~1046 kbps avg,0.13 bit/pixel
Аудио: 48 kHz, MPEG Layer 3, 2 ch, ~128.00 kbps avg-

Доп. информация

На вопрос заинтригованных читателей "Кто вы, Вадим Зеланд?", я обычно отвечаю: "Никто". Моя биография не может и не должна представлять интереса, поскольку я не создатель Трансерфинга, а всего лишь "ретранслятор". Необходимо действительно быть никем - пустым сосудом, чтобы не внести своих личностных искажений в это древнее Знание, открывающее двери в мир, где невозможное становится возможным. Реальность прекращает существовать как нечто внешнее и независимое - она становится управляемой, если следовать определенным правилам. Тайна, сокрытая лишь тем, что лежит на поверхности, - настолько грандиозна, что личность ее носителя перестает иметь значение. Пожалуй, подлинного интереса могут заслуживать хранители, передавшие мне это Знание, однако они так же предпочитают оставаться в тени

Содержание

- Почему ваш мир не такой, как вам бы хотелось
- Мир начнет преображаться на наших глазах
- Куда отправляется душа человека каждую ночь
- Человек думает не мозгом. Тогда чем же?
- Жизнь человека - это сон Бога
- Намерение человека - это намерение Бога
- Кто управляет вашим сознанием, все ли мысли ваши?
- Мир сворачивается в матрицу
- Почему желания не исполняются, а мечты не сбываются
- Что нужно делать, чтобы желания исполнялись, а мечты сбывались
- Когда и как был создан Трансерфинг
- И еще многое другое о неизвестной реальности
- Как проснуться в сновидении наяву
- Персонажи сновидений - бездушные манекены
- Блуждания в ... зеркальном лабиринте
- Технология достижения цели
- Вас ждут приятные неожиданности
- Мир останавливается и начинает идти навстречу
- Выход из зеркального лабиринта
- Откуда в вашей жизни берутся проблемы
- Как избавить себя от этих проблем
- Практические приемы управления реальностью
- Способы повышения своей энергетики
- Как оживлять вещи и заставлять их служить вам

MediaInfo

Код: copyText_writeLink('this.parentNode.parentNode.nextSibling.nextSibling'); General
Complete name : E:\Обучение\Зеланд_Вадим_-_Изнанка_реальности\Zeland_Transerfing_Iznanka_Realnosti_2.avi
Format : DivX
Format/Info : Hack of AVI
File size : 350 MiB
Duration : 44mn 15s
Overall bit rate : 1 105 Kbps
Video
ID : 0
Format : MPEG-4 Visual
Format settings, BVOP : No
Format settings, QPel : No
Format settings, GMC : No warppoints
Format settings, Matrix : Default (H.263)
Codec ID : DX50
Codec ID/Hint : DivX 5
Duration : 44mn 15s
Bit rate : 968 Kbps
Width : 640 pixels
Height : 496 pixels
Display aspect ratio : 1.290
Frame rate : 25.000 fps
Color space : YUV
Chroma subsampling : 4:2:0
Bit depth : 8 bits
Scan type : Progressive
Compression mode : Lossy
Bits/(Pixel*Frame) : 0.122
Stream size : 306 MiB (88%)
Title : Main
Writing library : DivX 6.8.5 (UTC 2009-08-20)
Audio
ID : 1
Format : MPEG Audio
Format version : Version 1
Format profile : Layer 3
Mode : Joint stereo
Codec ID : 55
Codec ID/Hint : MP3
Duration : 44mn 15s
Bit rate mode : Constant
Bit rate : 128 Kbps
Channel(s) : 2 channels
Sampling rate : 48.0 KHz
Compression mode : Lossy
Stream size : 40.5 MiB (12%)
Alignment : Split accross interleaves
Interleave, duration : 40 ms (1.00 video frame)
Interleave, preload duration : 500 ms
Title : Audio
- -

_________________
Показать сообщения:    

Текущее время: Сегодня 13:38

Часовой пояс: GMT



Вы не можете начинать темы
Вы не можете отвечать на сообщения
Вы не можете редактировать свои сообщения
Вы не можете удалять свои сообщения
Вы не можете голосовать в опросах
Вы не можете прикреплять файлы к сообщениям
Вы не можете скачивать файлы