Важное объявление!
У Нас Все раздачи мультитрекерные, при нуле пиров в релизах, можете смело вставать на закачку!
 
Автор Сообщение

HUNTER

Стаж:
4 года 4 месяца
Сообщений:
56790

Репутация: 101

[+] [-]
Вне форума [Профиль] [ЛС]

Транзит / Transit-
Страна: США
Студия: After Dark Films, Gaeta, Rosenzweig Films
Жанр: Боевик, триллер, драма, криминал
Год выпуска: 2011
Продолжительность: 01:27:48-Перевод: Профессиональный (многоголосый закадровый)
Cубтитры: английские
Оригинальная аудиодорожка: английский-Режиссер: Антонио Негрет / Antonio Negret
В ролях: Джеймс Кэвизел, Диора Бэрд, Элизабет Рём, Джеймс Фрейн, Стерлинг Найт, Хэролд Перрино, Джейк Черри, Райан Доноху, Бо Брассо, Робби Джонс
Описание: Чтобы перевезти украденные четыре миллиона долларов через дорожный контрольно-пропускной пункт, виновники кровавого ограбления банка используют простую семью, как невольных курьеров. Теперь преступники хотят получить свои деньги назад и не остановятся ни перед чем, чтобы вернуть их.-Доп. информация: Релиз сделан из ремукса, скаченного в сети. Оттуда же взяты главы, аудиодорожки и субтитры. Меню самодельное. Двд собрал в DVD Lab. Видео сжато Pro Coder в 2 прохода по этой инструкции. За столь ценное руководство спасибо Mikky72. Отдельная благодарность уходит ZVNV, который стойко выдержал испытание моими глупыми и не очень вопросами Еще одно спасибо AlsKnight за решение проблемы с кадрами.-Релиз групп: -
СЭМПЛ
-Меню: Есть, на русском языке, статичное, озвученное-Тип релиза: DVD5 (Custom)
Контейнер: DVD-Video
Видео: NTSC 16:9 (720x480) VBR
Аудио : Русский (Dolby AC3, 6 ch, 384 кб/с)
Аудио 2: Английский (Dolby AC3, 6 ch, 448 кб/с)-MI исходника
Format : Matroska
Format version : Version 2
File size : 17.0 GiB
Duration : 1h 27mn
Overall bit rate mode : Variable
Overall bit rate : 27.8 Mbps
Movie name : -::: ed_rez :::-
Encoded date : UTC 2012-06-10 15:09:13
Writing application : mkvmerge v5.5.0 ('Healer') built on Apr 6 2012 21:43:24
Writing library : libebml v1.2.3 + libmatroska v1.3.0
Video
ID : 1
Format : AVC
Format/Info : Advanced Video Codec
Format profile : High@L4.1
Format settings, CABAC : Yes
Format settings, ReFrames : 4 frames
Codec ID : V_MPEG4/ISO/AVC
Duration : 1h 27mn
Bit rate mode : Variable
Bit rate : 24.8 Mbps
Maximum bit rate : 35.0 Mbps
Width : 1 920 pixels
Height : 1 080 pixels
Display aspect ratio : 16:9
Frame rate : 23.976 fps
Standard : NTSC
Color space : YUV
Chroma subsampling : 4:2:0
Bit depth : 8 bits
Scan type : Progressive
Bits/(Pixel*Frame) : 0.499
Stream size : 15.2 GiB (89%)
Color primaries : BT.709-5, BT.1361, IEC 61966-2-4, SMPTE RP177
Transfer characteristics : BT.709-5, BT.1361
Matrix coefficients : BT.709-5, BT.1361, IEC 61966-2-4 709, SMPTE RP177
Audio #1
ID : 2
Format : AC-3
Format/Info : Audio Coding 3
Mode extension : CM (complete main)
Codec ID : A_AC3
Duration : 1h 27mn
Bit rate mode : Constant
Bit rate : 384 Kbps
Channel(s) : 6 channels
Channel positions : Front: L C R, Side: L R, LFE
Sampling rate : 48.0 KHz
Bit depth : 16 bits
Compression mode : Lossy
Stream size : 241 MiB (1%)
Title : Многоголосый |Лицензия|
Language : Russian
Audio #2
ID : 3
Format : AC-3
Format/Info : Audio Coding 3
Mode extension : CM (complete main)
Codec ID : A_AC3
Duration : 1h 27mn
Bit rate mode : Constant
Bit rate : 448 Kbps
Channel(s) : 6 channels
Channel positions : Front: L C R, Side: L R, LFE
Sampling rate : 48.0 KHz
Bit depth : 16 bits
Compression mode : Lossy
Stream size : 282 MiB (2%)
Title : Двухголосый С. Дидок и Г. Чиркова
Language : Russian
Audio #3
ID : 4
Format : DTS
Format/Info : Digital Theater Systems
Format profile : MA / Core
Codec ID : A_DTS
Duration : 1h 27mn
Bit rate mode : Variable
Bit rate : 1 561 Kbps / 1 510 Kbps
Channel(s) : 6 channels
Channel positions : Front: L C R, Side: L R, LFE
Sampling rate : 48.0 KHz
Bit depth : 16 bits
Compression mode : Lossless / Lossy
Language : English
Text #1
ID : 5
Format : UTF-8
Codec ID : S_TEXT/UTF8
Codec ID/Info : UTF-8 Plain Text
Title : Английские
Language : English
DVDInfo
Size: 4.32 Gb ( 4 531 590 KBytes ) - DVD-5
Enabled regions: 1, 2, 3, 4, 5, 6, 7, 8
VTS_01 :
Play Length: 01:27:48
Video: NTSC 16:9 (720x480) VBR, Auto Pan&Scan
Audio:
Russian (Dolby AC3, 6 ch)
English (Dolby AC3, 6 ch)
Subtitles:
English
Menu Video:
NTSC 4:3 (720x480) VBR
Menu English Language Unit :
Root Menu
Скриншоты менюСкриншотыСкрипт
LoadPlugin("C:\Users\SkyWalker\Desktop\DGDecodeNV\DGDecodeNV.dll")
DGSource("project.dgi") #если в исходнике отсутствуют артефакты
LoadPlugin("C:\Program Files\AutoYUY2\AutoYUY2.dll") #более медленный, но качественный аналог ConvertToYUY2()
AutoYUY2()
LoadPlugin("C:\Program Files\ColorMatrix\ColorMatrix.dll")
ColorMatrix(mode="Rec.709->Rec.601", inputFR=false, clamp=0) #корректировка цветовой шкалы, если проверка показывает 16-235
AssumeFPS("ntsc_film")
BicubicResize(720, 480, 0, 0.5) #ресайз методом Catmull-Rom spline
AddBorders (0,0,0,0) #bbb=00
Программы, используемые при создание этого релиза
Видео
Rhozet Carbon Coder - конвертация видео
AviSynth - обработка видео
DGDecodeNV - индексирование
Програмы для разборки/сборки ДВД
PgcDemux - демукс исходного DVD
tsMuxeR - разборка ремукса
MuxMan - сборка видео
Работа со звуком
TranzcodeGUI - извлечение wav
Sonic Foundry Soft Encode - кодирование и сборка ac3 дорожки
Работа с субтитрами
DVDSubEdit - корректировка таймингов и расположения на экране субтитров
Работа с меню и реавторинг
Adobe Photoshop - редактирование меню
DVDReMakePro - реавторинг диска

_________________
Показать сообщения:    

Текущее время: Сегодня 18:19

Часовой пояс: GMT



Вы не можете начинать темы
Вы не можете отвечать на сообщения
Вы не можете редактировать свои сообщения
Вы не можете удалять свои сообщения
Вы не можете голосовать в опросах
Вы не можете прикреплять файлы к сообщениям
Вы не можете скачивать файлы