Важное объявление!
У Нас Все раздачи мультитрекерные, при нуле пиров в релизах, можете смело вставать на закачку!
 
Автор Сообщение

HUNTER

Стаж:
4 года 4 месяца
Сообщений:
56853

Репутация: 101

[+] [-]
Вне форума [Профиль] [ЛС]

-Трамбо / Trumbo
«Are you now or have you ever been...»-
-Страна: США
Жанр: Драма, Биография
Год выпуска: 2015
Продолжительность: 02:04:39-Перевод: Профессиональный (многоголосый закадровый) iTunes-Cубтитры: Английские
Оригинальная аудиодорожка: Английская-Режиссер: Джей Роуч / Jay Roach-В ролях: Брайан Крэнстон, Дайан Лэйн, Хелен Миррен, Майкл Стулбарг, Дэвид Мальдонадо, Джон Гец, Лаура Флэннери, Дэвид Джеймс Эллиотт, Тоби Николс, Джозеф С. Мартино-Описание: Далтон Трамбо, один из самых успешных голливудских сценаристов, автор «Римских каникул» и «Спартака», не подозревал, что черный список «Hollywood 10» реально существует, пока сам не попал туда и не был навсегда выкинут из жизни фабрики грез…- - -Тип релиза: BDRip 1080p
Контейнер: MKV-Видео: MPEG-4 AVC, 1920x1040 (1.85:1), 23.976 fps, ~15700 kbps avg, 0.328 bit/pixel
Аудио 1: 48 kHz, AC3 Dolby Digital, 3/2 (L,C,R,l,r) + LFE ch, ~384 kbps avg
Аудио 2: 48 kHz, DTS, 3/2 (L,C,R,l,r) + LFE ch, ~1509 kbps avg-

MediaInfo

Complete name : D:\РАЗДАЧИ\Trumbo (2015) BDRip 1080p.mkv
Format : Matroska
Format version : Version 2
File size : 15.6 GiB
Duration : 2h 4mn
Overall bit rate : 18.0 Mbps
Movie name : Trumbo (2015) BDRip 1080p
Encoded date : UTC 2016-02-24 01:35:43
Writing application : mkvmerge v3.0.0 ('Hang up your Hang-Ups') built on Dec 12 2009 15:20:35
Writing library : libebml v0.7.9 + libmatroska v0.8.1
Cover : Yes
Video
ID : 1
Format : AVC
Format/Info : Advanced Video Codec
Format profile : High@L4.1
Format settings, CABAC : Yes
Format settings, ReFrames : 4 frames
Codec ID : V_MPEG4/ISO/AVC
Duration : 2h 4mn
Bit rate : 15.7 Mbps
Width : 1 920 pixels
Height : 1 040 pixels
Display aspect ratio : 1.85:1
Frame rate mode : Constant
Frame rate : 23.976 fps
Color space : YUV
Chroma subsampling : 4:2:0
Bit depth : 8 bits
Scan type : Progressive
Bits/(Pixel*Frame) : 0.328
Stream size : 13.7 GiB (87%)
Writing library : x264 core 146 r2538 121396c
Encoding settings : cabac=1 / ref=4 / deblock=1:-3:-3 / analyse=0x3:0x133 / me=umh / subme=11 / psy=1 / psy_rd=1.00:0.00 / mixed_ref=1 / me_range=32 / chroma_me=1 / trellis=2 / 8x8dct=1 / cqm=0 / deadzone=21,11 / fast_pskip=0 / chroma_qp_offset=-2 / threads=48 / lookahead_threads=8 / sliced_threads=0 / nr=0 / decimate=0 / interlaced=0 / bluray_compat=0 / constrained_intra=0 / bframes=11 / b_pyramid=2 / b_adapt=2 / b_bias=0 / direct=3 / weightb=1 / open_gop=0 / weightp=2 / keyint=240 / keyint_min=23 / scenecut=40 / intra_refresh=0 / rc_lookahead=150 / rc=crf / mbtree=0 / crf=15.4 / qcomp=0.60 / qpmin=0 / qpmax=69 / qpstep=4 / vbv_maxrate=62500 / vbv_bufsize=78125 / crf_max=0.0 / nal_hrd=none / filler=0 / ip_ratio=1.40 / pb_ratio=1.30 / aq=1:0.80
Default : No
Forced : No
Audio #1
ID : 2
Format : AC-3
Format/Info : Audio Coding 3
Mode extension : CM (complete main)
Format settings, Endianness : Big
Codec ID : A_AC3
Duration : 2h 4mn
Bit rate mode : Constant
Bit rate : 384 Kbps
Channel(s) : 6 channels
Channel positions : Front: L C R, Side: L R, LFE
Sampling rate : 48.0 KHz
Bit depth : 16 bits
Compression mode : Lossy
Stream size : 342 MiB (2%)
Title : iTunes
Language : Russian
Default : Yes
Forced : No
Audio #2
ID : 3
Format : DTS
Format/Info : Digital Theater Systems
Mode : 16
Format settings, Endianness : Big
Codec ID : A_DTS
Duration : 2h 4mn
Bit rate mode : Constant
Bit rate : 1 509 Kbps
Channel(s) : 6 channels
Channel positions : Front: L C R, Side: L R, LFE
Sampling rate : 48.0 KHz
Bit depth : 24 bits
Compression mode : Lossy
Stream size : 1.31 GiB (8%)
Title : Original
Language : English
Default : No
Forced : No
Text
ID : 4
Format : UTF-8
Codec ID : S_TEXT/UTF8
Codec ID/Info : UTF-8 Plain Text
Title : English
Language : English
Default : No
Forced : No
Menu
00:00:00.000 : en:Chapter 1
00:07:30.200 : en:Chapter 2
00:14:59.315 : en:Chapter 3
00:20:57.047 : en:Chapter 4
00:26:34.510 : en:Chapter 5
00:33:53.031 : en:Chapter 6
00:37:17.444 : en:Chapter 7
00:44:06.602 : en:Chapter 8
00:49:25.171 : en:Chapter 9
00:55:12.100 : en:Chapter 10
01:02:08.934 : en:Chapter 11
01:08:05.915 : en:Chapter 12
01:16:20.451 : en:Chapter 13
01:23:31.381 : en:Chapter 14
01:29:42.502 : en:Chapter 15
01:34:53.354 : en:Chapter 16
01:39:49.442 : en:Chapter 17
01:47:33.906 : en:Chapter 18
01:52:36.667 : en:Chapter 19
01:58:56.755 : en:Chapter 20

Скриншоты


_________________
Показать сообщения:    

Текущее время: Сегодня 13:36

Часовой пояс: GMT



Вы не можете начинать темы
Вы не можете отвечать на сообщения
Вы не можете редактировать свои сообщения
Вы не можете удалять свои сообщения
Вы не можете голосовать в опросах
Вы не можете прикреплять файлы к сообщениям
Вы не можете скачивать файлы
Наши партнеры: интернет магазин Ивановского трикотажа textilla.ru