Важное объявление!
У Нас Все раздачи мультитрекерные, при нуле пиров в релизах, можете смело вставать на закачку!
 
Автор Сообщение

HUNTER

Стаж:
4 года 4 месяца
Сообщений:
56749

Репутация: 101

[+] [-]
Вне форума [Профиль] [ЛС]

Тот, кто меня бережёт / Someone to Watch Over Me
Год выпуска: 1987
Страна: США
Жанр: триллер, драма, мелодрама, криминал
Продолжительность: 01:46:03
Перевод1: Профессиональный (многоголосый закадровый)
Перевод2: Авторский (одноголосый закадровый)(А.Гаврилов)
Субтитры: русские, английские
Оригинальная аудиодорожка: английский
Режиссер: Ридли Скотт / Ridley Scott
В ролях: Том Беренджер /Tom Berenger/, Мими Роджерс /Mimi Rogers/, Лоррэйн Бракко /Lorraine Bracco/, Андреас Катсулас /Andreas Katsulas/, Джон Рубинстайн /John Rubinstein/, Джерри Орбак /Jerry Orbach
Описание: Охранять важного свидетеля – обычная работа для служителя закона. Но если в защите нуждается соблазнительная женщина, такая работа становится опасной вдвойне. Майклу поручено 24 часа в сутки быть рядом с прекрасной Клэр, за которой охотится непредсказуемый преступник. Полицейскому разрешено находиться лишь в холле и на кухне, но он заходит слишком далеко …прямо в спальню красавицы. Пока Майкл разрывается между семьей и страстью, убийца подбирается совсем близко, на расстояние выстрела!

Качество: HDTV 720i
Формат: MKV
Видео кодек: H.264
Аудио кодек: AC3
Видео: 1280 x 720; 23,976 fps; 13,1 Mbps
Аудио1: Русский, AC3 2.0 192 Kbps 48,0 КГц(MVO)
Аудио2: Русский, AC3 2.0 192 Kbps 48,0 КГц(Gavrilov)
Аудио3: English, АС3 2.0 256 Kbps 48,0 КГц(Original)
Субтитры: softsub (SRT)

MediaInfo

F:\Someone.to.Watch.Over.Me.1987.HDTVRip.720p.2xRus.Eng.mkv
General
Unique ID : 252515697751044298549771894348700594676 (0xBDF8C11E91040405865C5097AE2231F4)
Complete name : F:\Someone.to.Watch.Over.Me.1987.HDTVRip.720p.2xRus.Eng.mkv
Format : Matroska
File size : 10.4 GiB
Duration : 1h 46mn
Overall bit rate : 14.0 Mbps
Movie name : Someone to Watch Over Me
Encoded date : UTC 2014-11-09 06:56:54
Writing application : mkvmerge v5.3.0 ('I could have danced') built on Feb 9 2012 10:38:07
Writing library : libebml v1.2.3 + libmatroska v1.3.0
Video #1
ID : 1
Format : AVC
Format/Info : Advanced Video Codec
Format profile : Main@L4.0
Format settings, CABAC : Yes
Format settings, ReFrames : 4 frames
Format settings, GOP : M=4, N=32
Muxing mode : Header stripping
Codec ID : V_MPEG4/ISO/AVC
Duration : 1h 46mn
Bit rate mode : Variable
Bit rate : 13.1 Mbps
Maximum bit rate : 20.0 Mbps
Width : 1 280 pixels
Height : 720 pixels
Display aspect ratio : 16:9
Frame rate : 50.000 fps
Color space : YUV
Chroma subsampling : 4:2:0
Bit depth : 8 bits
Scan type : Progressive
Bits/(Pixel*Frame) : 0.284
Stream size : 9.69 GiB (93%)
Title : Someone to Watch Over Me 1987
Color primaries : BT.709-5, BT.1361, IEC 61966-2-4, SMPTE RP177
Transfer characteristics : BT.709-5, BT.1361
Matrix coefficients : BT.709-5, BT.1361, IEC 61966-2-4 709, SMPTE RP177
Audio #2
ID : 2
Format : AC-3
Format/Info : Audio Coding 3
Mode extension : CM (complete main)
Muxing mode : Header stripping
Codec ID : A_AC3
Duration : 1h 46mn
Bit rate mode : Constant
Bit rate : 192 Kbps
Channel(s) : 2 channels
Channel positions : Front: L R
Sampling rate : 48.0 KHz
Bit depth : 16 bits
Compression mode : Lossy
Stream size : 146 MiB (1%)
Title : MVO AC3 2.0 192 kbps
Language : Russian
Audio #3
ID : 3
Format : AC-3
Format/Info : Audio Coding 3
Mode extension : CM (complete main)
Muxing mode : Header stripping
Codec ID : A_AC3
Duration : 1h 46mn
Bit rate mode : Constant
Bit rate : 192 Kbps
Channel(s) : 2 channels
Channel positions : Front: L R
Sampling rate : 48.0 KHz
Bit depth : 16 bits
Compression mode : Lossy
Stream size : 146 MiB (1%)
Title : Gavrilov AC3 2.0 192 kbps
Language : Russian
Audio #4
ID : 4
Format : AC-3
Format/Info : Audio Coding 3
Format profile : Dolby Digital
Mode extension : CM (complete main)
Muxing mode : Header stripping
Codec ID : A_AC3
Duration : 1h 46mn
Bit rate mode : Constant
Bit rate : 256 Kbps
Channel(s) : 2 channels
Channel positions : Front: L R
Sampling rate : 48.0 KHz
Bit depth : 16 bits
Compression mode : Lossy
Stream size : 194 MiB (2%)
Title : Original AC3 2.0 256 kbps
Language : English
Text #5
ID : 5
Format : UTF-8
Codec ID : S_TEXT/UTF8
Codec ID/Info : UTF-8 Plain Text
Language : Russian
Text #6
ID : 6
Format : UTF-8
Codec ID : S_TEXT/UTF8
Codec ID/Info : UTF-8 Plain Text
Language : English

Скриншоты


_________________
Показать сообщения:    

Текущее время: Сегодня 21:57

Часовой пояс: GMT



Вы не можете начинать темы
Вы не можете отвечать на сообщения
Вы не можете редактировать свои сообщения
Вы не можете удалять свои сообщения
Вы не можете голосовать в опросах
Вы не можете прикреплять файлы к сообщениям
Вы не можете скачивать файлы