Важное объявление!
У Нас Все раздачи мультитрекерные, при нуле пиров в релизах, можете смело вставать на закачку!
 
Автор Сообщение

HUNTER

Стаж:
4 года 4 месяца
Сообщений:
56722

Репутация: 101

[+] [-]
Вне форума [Профиль] [ЛС]

Тор 2: Царство тьмы / Thor: The Dark World
Страна: США
Жанр: Экранизация комикса, фантастика, приключения
Год выпуска: 2013
Продолжительность: 01:47:28
Перевод #1: Профессиональный (дублированный) русский
Перевод #2: Профессиональный (дублированный) чешский
Cубтитры: английские, чешские, словацкие, русские, латвийские, литовские, эстонские (ВКЛ/ВЫКЛ)
Оригинальная аудиодорожка: английский
Режиссёр: Алан Тейлор / Alan Taylor
В ролях: Крис Хемсворт, Натали Портман, Том Хиддлстон, Энтони Хопкинс, Кристофер Экклестон, Джейми Александр, Закари Леви, Рэй Стивенсон, Таданобу Асано, Идрис Эльба, Рене Руссо, Адевале Акиннуойе-Агбайе, Кэт Деннингс, Стеллан Скарсгаард, Элис Крайдж, Клайв Расселл, и др.
Описание: Фильм рассказывает об усилиях отважного скандинавского бога восстановить порядок в галактике. Тору приходится сражаться с древней инопланетной расой, ведомой злодеем Малекитом, жаждущим установить в девяти мирах власть тьмы. Столкнувшись с врагом, более могущественным чем сам Один и всё воинство Асгарда, Тор должен найти в себе силы для борьбы. Его ждёт опасное путешествие, в конце которого он сможет вновь встретиться со своей земной возлюбленной Джейн Фостер. Сможет ли Тор рискнуть всем, чтобы не дать тьме воцариться на просторах вселенной?
Дополнительные материалы:
Эксклюзив! <<Первый Мститель: Другая война>>;
Удалённая сцена.
Все на английском, переведены чешскими, словацкими и русскими субтитрами.
Меню: английский, чешский, словацкий, русский. Aнимированное (частично), озвученное.
Издатель диска: Уoлт Диcнeй Koмпaни CHГ

Тип релиза: DVD9
Контейнер: DVD-Video
Video: MPEG-2, VBR 6384 - 9800 Kbps, 720 x 576 pixels 16:9, 25.000 fps PAL, 0.616 bit/pixel
Аudio #1: AC-3 Dolby Digital, CBR 384 kbps 6 ch (Front: L C R, Side: L R, LFE) 48.0 KHz English
Аudio #2: AC-3 Dolby Digital, CBR 192 kbps 2 ch (Front: L R) 48.0 KHz English (comment)
Аudio #3: AC-3 Dolby Digital, CBR 384 kbps 6 ch (Front: L C R, Side: L R, LFE) 48.0 KHz Czech
Аudio #4: AC-3 Dolby Digital, CBR 384 kbps 6 ch (Front: L C R, Side: L R, LFE) 48.0 KHz Russian

DVDInfo

Title: Thor_The_Dark_World_2013_DVD9_[rutracker.org]Size: 6.44 Gb ( 6 752 694,00 KBytes ) - DVD-9Enabled regions: 1, 2, 3, 4, 5, 6, 7, 8
VTS_01 : Play Length: 00:00:00 Video: PAL 16:9 (720x576) VBR, Auto Pan&Scan Audio: Not specified (Dolby AC3, 2 ch)
VTS_02 : Play Length: 00:00:29 Video: PAL 16:9 (720x576) VBR, Auto Letterboxed Audio: English (Dolby AC3, 6 ch)
VTS_03 : Play Length: 00:03:27 Video: PAL 16:9 (720x576) VBR, Auto Letterboxed Audio: English (Dolby AC3, 6 ch) Subtitles: Czech(Ceske) Slovak Russian
VTS_04 : Play Length: 00:00:00 Video: PAL 16:9 (720x576) VBR, Auto Letterboxed
VTS_05 : Play Length: 01:47:28 Video: PAL 16:9 (720x576) VBR, Auto Letterboxed Audio: English (Dolby AC3, 6 ch) English (Dolby AC3, 2 ch) Czech(Ceske) (Dolby AC3, 6 ch) Russian (Dolby AC3, 6 ch) Subtitles: English Czech(Ceske) Slovak Russian Latvian Lithuanian Estonian English Czech(Ceske) Russian
VTS_06 : Play Length: 00:01:42 Video: PAL 16:9 (720x576) VBR, Auto Letterboxed Audio: English (Dolby AC3, 2 ch) Subtitles: Czech(Ceske) Slovak Russian
VTS_07 : Play Length: 00:00:20+00:00:20 Video: PAL 16:9 (720x576) VBR, Auto Pan&Scan
* Menus Information *
VIDEO_TS MenuVideo: PAL 16:9 (720x576) VBR Auto Pan&ScanAudio: Not specified (Dolby AC3, 2 ch)English Language Unit : Title Menu
VTS_01 MenuVideo: PAL 4:3 (720x576) VBR Auto Pan&Scan, Auto LetterboxedEnglish Language Unit : Root Menu
VTS_02 MenuVideo: PAL 16:9 (720x576) VBR Auto Pan&Scan, Auto LetterboxedAudio: Not specified (Dolby AC3, 2 ch)English Language Unit : Root Menu Angle menu Chapter (PTT) Menu
VTS_03 MenuVideo: PAL 4:3 (720x576) VBR Auto Pan&Scan, Auto LetterboxedEnglish Language Unit : Root Menu
VTS_04 MenuVideo: PAL 16:9 (720x576) VBR Auto Pan&ScanAudio: Not specified (Dolby AC3, 6 ch)English Language Unit : Root Menu Angle menu
VTS_05 MenuVideo: PAL 4:3 (720x576) VBR Auto Pan&Scan, Auto LetterboxedEnglish Language Unit : Root Menu Angle menu
VTS_06 MenuVideo: PAL 4:3 (720x576) VBR Auto Pan&Scan, Auto LetterboxedEnglish Language Unit : Root Menu
VTS_07 MenuVideo: PAL 16:9 (720x576) VBR Auto Pan&ScanEnglish Language Unit : Root Menu Angle menu

MediaInfo - VTS_05_1.VOB

ОбщееПолное имя : V:\Thor_The_Dark_World_2013_DVD9_[rutracker.org]\VIDEO_TS\VTS_05_1.VOBФормат : MPEG-PSРазмер файла : 1024 МбайтПродолжительность : 18 м.Режим общего битрейта : ПеременныйОбщий поток : 7885 Кбит/сек
ВидеоИдентификатор : 224 (0xE0)Формат : MPEG VideoВерсия формата : Version 2Профиль формата : Main@MainПараметр BVOP формата : ДаПараметр матрицы формата : ВыборочнаяПараметр GOP формата : VariableПродолжительность : 18 м.Вид битрейта : ПеременныйБитрейт : 6384 Кбит/секМаксимальный битрейт : 9800 Кбит/секШирина : 720 пикселейВысота : 576 пикселейСоотношение сторон : 16:9Частота кадров : 25,000 кадров/секСтандарт вещания : ComponentЦветовое пространство : YUVСубдискретизация насыщенности : 4:2:0Битовая глубина : 8 битТип развёртки : ПрогрессивнаяПорядок развёртки : Верхнее поле первоеМетод сжатия : С потерямиБит/(Пиксели*Кадры) : 0.616Временной код первого кадра : 00:59:59:00Оригинал временного кода : Group of pictures headerРазмер потока : 829 Мбайт (81%)Основные цвета : BT.601 PALХарактеристики трансфера : BT.470 System B, BT.470 System GКоэффициенты матрицы : BT.601
Аудио #1Идентификатор : 189 (0xBD)-128 (0x80)Формат : AC-3Формат/Информация : Audio Coding 3Расширение режима : CM (complete main)Параметр Endianness формата : BigРежим смешивания : DVD-VideoПродолжительность : 18 м.Вид битрейта : ПостоянныйБитрейт : 384 Кбит/секКаналы : 6 каналовРасположение каналов : Front: L C R, Side: L R, LFEЧастота : 48,0 КГцБитовая глубина : 16 битМетод сжатия : С потерямиРазмер потока : 49,9 Мбайт (5%)
Аудио #2Идентификатор : 189 (0xBD)-129 (0x81)Формат : AC-3Формат/Информация : Audio Coding 3Профиль формата : Dolby DigitalРасширение режима : CM (complete main)Параметр Endianness формата : BigРежим смешивания : DVD-VideoПродолжительность : 18 м.Вид битрейта : ПостоянныйБитрейт : 192 Кбит/секКаналы : 2 каналаРасположение каналов : Front: L RЧастота : 48,0 КГцБитовая глубина : 16 битМетод сжатия : С потерямиРазмер потока : 24,9 Мбайт (2%)
Аудио #3Идентификатор : 189 (0xBD)-130 (0x82)Формат : AC-3Формат/Информация : Audio Coding 3Расширение режима : CM (complete main)Параметр Endianness формата : BigРежим смешивания : DVD-VideoПродолжительность : 18 м.Вид битрейта : ПостоянныйБитрейт : 384 Кбит/секКаналы : 6 каналовРасположение каналов : Front: L C R, Side: L R, LFEЧастота : 48,0 КГцБитовая глубина : 16 битМетод сжатия : С потерямиРазмер потока : 49,9 Мбайт (5%)
Аудио #4Идентификатор : 189 (0xBD)-131 (0x83)Формат : AC-3Формат/Информация : Audio Coding 3Расширение режима : CM (complete main)Параметр Endianness формата : BigРежим смешивания : DVD-VideoПродолжительность : 18 м.Вид битрейта : ПостоянныйБитрейт : 384 Кбит/секКаналы : 6 каналовРасположение каналов : Front: L C R, Side: L R, LFEЧастота : 48,0 КГцБитовая глубина : 16 битМетод сжатия : С потерямиРазмер потока : 49,9 Мбайт (5%)
Текст #1Идентификатор : 189 (0xBD)-32 (0x20)Формат : RLEФормат/Информация : Run-length encodingРежим смешивания : DVD-Video
Текст #2Идентификатор : 189 (0xBD)-33 (0x21)Формат : RLEФормат/Информация : Run-length encodingРежим смешивания : DVD-Video
Текст #3Идентификатор : 189 (0xBD)-34 (0x22)Формат : RLEФормат/Информация : Run-length encodingРежим смешивания : DVD-Video
Текст #4Идентификатор : 189 (0xBD)-35 (0x23)Формат : RLEФормат/Информация : Run-length encodingРежим смешивания : DVD-Video
Текст #5Идентификатор : 189 (0xBD)-36 (0x24)Формат : RLEФормат/Информация : Run-length encodingРежим смешивания : DVD-Video
Текст #6Идентификатор : 189 (0xBD)-37 (0x25)Формат : RLEФормат/Информация : Run-length encodingРежим смешивания : DVD-Video
Текст #7Идентификатор : 189 (0xBD)-38 (0x26)Формат : RLEФормат/Информация : Run-length encodingРежим смешивания : DVD-Video
Текст #8Идентификатор : 189 (0xBD)-39 (0x27)Формат : RLEФормат/Информация : Run-length encodingРежим смешивания : DVD-Video
Текст #9Идентификатор : 189 (0xBD)-40 (0x28)Формат : RLEФормат/Информация : Run-length encodingРежим смешивания : DVD-Video
Текст #10Идентификатор : 189 (0xBD)-41 (0x29)Формат : RLEФормат/Информация : Run-length encodingРежим смешивания : DVD-Video
Текст #11Идентификатор : 189 (0xBD)-42 (0x2A)Формат : RLEФормат/Информация : Run-length encodingРежим смешивания : DVD-Video
Текст #12Идентификатор : 189 (0xBD)-43 (0x2B)Формат : RLEФормат/Информация : Run-length encodingРежим смешивания : DVD-Video
Текст #13Идентификатор : 189 (0xBD)-44 (0x2C)Формат : RLEФормат/Информация : Run-length encodingРежим смешивания : DVD-Video
Текст #14Идентификатор : 189 (0xBD)-45 (0x2D)Формат : RLEФормат/Информация : Run-length encodingРежим смешивания : DVD-Video
Текст #15Идентификатор : 189 (0xBD)-46 (0x2E)Формат : RLEФормат/Информация : Run-length encodingРежим смешивания : DVD-Video
Текст #16Идентификатор : 189 (0xBD)-47 (0x2F)Формат : RLEФормат/Информация : Run-length encodingРежим смешивания : DVD-Video
Текст #17Идентификатор : 189 (0xBD)-48 (0x30)Формат : RLEФормат/Информация : Run-length encodingРежим смешивания : DVD-Video
Текст #18Идентификатор : 189 (0xBD)-49 (0x31)Формат : RLEФормат/Информация : Run-length encodingРежим смешивания : DVD-Video
Текст #19Идентификатор : 189 (0xBD)-50 (0x32)Формат : RLEФормат/Информация : Run-length encodingРежим смешивания : DVD-Video
Текст #20Идентификатор : 189 (0xBD)-51 (0x33)Формат : RLEФормат/Информация : Run-length encodingРежим смешивания : DVD-Video
Меню

Скриншоты дополнительных материалов

Эксклюзив! <<Первый Мститель: Другая война>>

Удалённая сцена

Время раздачи - по возможности.

_________________
Показать сообщения:    

Текущее время: Сегодня 14:04

Часовой пояс: GMT



Вы не можете начинать темы
Вы не можете отвечать на сообщения
Вы не можете редактировать свои сообщения
Вы не можете удалять свои сообщения
Вы не можете голосовать в опросах
Вы не можете прикреплять файлы к сообщениям
Вы не можете скачивать файлы