Важное объявление!
У Нас Все раздачи мультитрекерные, при нуле пиров в релизах, можете смело вставать на закачку!
 
Автор Сообщение

димитри37

Стаж:
3 года 8 месяцев
Сообщений:
1237

Репутация: 127

[+] [-]
Вне форума [Профиль] [ЛС]

Топор / Hatchet
Страна: США
Жанр: ужасы, комедия
Год выпуска: 2006
Продолжительность: 01:23:59
Перевод: Профессиональный (многоголосый закадровый) студия ИНИС
Оригинальная аудиодорожка: английский
Cубтитры: русские (полные), английские (полные), английские (SDH - для слабослышащих)
Режиссер: Адам Грин / Adam Green
В ролях: Джоэль Мур (Ben), Тамара Фельдман (Marybeth), Дион Ричмонд (Marcus), Кэйн Ходдер (Victor Crowley / Mr. Crowley), Мерседес МакНаб (Misty), Парри Шен (Shawn), Джоэль Мюррей (Doug Shapiro), Джолей Фиореванти (Jenna), Ричард Риле (Jim Permatteo), Пэтрика Дарбо (Shannon Permatteo), Роберт Инглунд (Sampson), Джошуа Леонард (Ainsley), Тони Тодд (Reverend Zombie), Джон Карл Бюхлер (Jack Cracker), Райли Вандербилт (Young Victor Crowley), Адам Грин (Buddy #1)
Описание: Вы готовы увидеть нечто действительно страшное? С этим вопросом обращается к туристам их неопытный гид. Он везет свою группу на крошечном катере по болотам Новой Луизианы. Еще бы они не хотели, когда затеяли ночное путешествие!
Пожилая пара, троица, снимающая эротическое видео для Хеллоуина, плюс двое скучающих парней - все они жаждут острых ощущений. Значит, лучшего места не сыскать: болота здесь кишат крокодилами, а на острове в лесу, говорят, обретается призрак легендарного Кроули. Кроули, который родился монстром…

Тип релиза: BDRip-AVC
Исходник: Hatchet.1.2006.1080p.Bluray.AVC.Remux.HDCLUB
Контейнер: MKV
Видео: 960x540p / 23.976 fps / 16:9 / High Profile 4.1 / AVC / ~ 2820 Kbps
Аудио 1: AC3 / 448 Kbps / 5.1 / 48 kHz / Russian / MVO
Аудио 2: AC3 / 448 Kbps / 5.1 / 48 kHz / English / original
Формат субтитров: softsub (SRT)

MediaInfo / x264 log

General
Complete name : Hatchet.2006.BDRip-AVC.MVO.mkv
Format : Matroska
Format version : Version 2
File size : 2.18 GiB
Duration : 1h 23mn
Overall bit rate : 3 716 Kbps
Encoded date : UTC 2013-01-13 09:16:24
Writing application : mkvmerge v5.4.0 ('Piper') built on Mar 10 2012 13:34:39
Writing library : libebml v1.2.3 + libmatroska v1.3.0
Video
ID : 1
Format : AVC
Format/Info : Advanced Video Codec
Format profile : High@L4.1
Format settings, CABAC : Yes
Format settings, ReFrames : 12 frames
Codec ID : V_MPEG4/ISO/AVC
Duration : 1h 23mn
Bit rate : 2 820 Kbps
Width : 960 pixels
Height : 540 pixels
Display aspect ratio : 16:9
Frame rate : 23.976 fps
Color space : YUV
Chroma subsampling : 4:2:0
Bit depth : 8 bits
Scan type : Progressive
Bits/(Pixel*Frame) : 0.227
Stream size : 1.61 GiB (74%)
Title : Hatchet 2006
Writing library : x264 core 122 r2184 5c85e0a
Encoding settings : cabac=1 / ref=12 / deblock=1:-1:-1 / analyse=0x3:0x113 / me=umh / subme=11 / psy=1 / psy_rd=1.00:0.00 / mixed_ref=1 / me_range=24 / chroma_me=1 / trellis=2 / 8x8dct=1 / cqm=0 / deadzone=21,11 / fast_pskip=1 / chroma_qp_offset=-2 / threads=6 / sliced_threads=0 / nr=0 / decimate=1 / interlaced=0 / bluray_compat=0 / constrained_intra=0 / bframes=9 / b_pyramid=2 / b_adapt=2 / b_bias=0 / direct=3 / weightb=1 / open_gop=0 / weightp=2 / keyint=250 / keyint_min=23 / scenecut=40 / intra_refresh=0 / rc_lookahead=60 / rc=2pass / mbtree=1 / bitrate=2820 / ratetol=1.0 / qcomp=0.60 / qpmin=0 / qpmax=69 / qpstep=4 / cplxblur=20.0 / qblur=0.5 / ip_ratio=1.40 / aq=1:1.20
Default : Yes
Forced : No
Audio #1
ID : 2
Format : AC-3
Format/Info : Audio Coding 3
Mode extension : CM (complete main)
Format settings, Endianness : Big
Codec ID : A_AC3
Duration : 1h 23mn
Bit rate mode : Constant
Bit rate : 448 Kbps
Channel(s) : 6 channels
Channel positions : Front: L C R, Side: L R, LFE
Sampling rate : 48.0 KHz
Bit depth : 16 bits
Compression mode : Lossy
Stream size : 269 MiB (12%)
Title : RUS AC3 448 Kbps 6ch MVO INIS
Language : Russian
Default : Yes
Forced : No
Audio #2
ID : 3
Format : AC-3
Format/Info : Audio Coding 3
Mode extension : CM (complete main)
Format settings, Endianness : Big
Codec ID : A_AC3
Duration : 1h 23mn
Bit rate mode : Constant
Bit rate : 448 Kbps
Channel(s) : 6 channels
Channel positions : Front: L C R, Side: L R, LFE
Sampling rate : 48.0 KHz
Bit depth : 16 bits
Compression mode : Lossy
Stream size : 269 MiB (12%)
Title : ENG AC3 448 Kbps 6ch original
Language : English
Default : No
Forced : No
Text #1
ID : 4
Format : UTF-8
Codec ID : S_TEXT/UTF8
Codec ID/Info : UTF-8 Plain Text
Title : RUS Subtitles Full
Language : Russian
Default : No
Forced : No
Text #2
ID : 5
Format : UTF-8
Codec ID : S_TEXT/UTF8
Codec ID/Info : UTF-8 Plain Text
Title : ENG Subtitles Full
Language : English
Default : No
Forced : No
Text #3
ID : 6
Format : UTF-8
Codec ID : S_TEXT/UTF8
Codec ID/Info : UTF-8 Plain Text
Title : ENG Subtitles Full SDH
Language : English
Default : No
Forced : No
Menu
00:00:00.000 : :Chapter 01
00:05:59.859 : :Chapter 02
00:14:15.896 : :Chapter 03
00:17:00.894 : :Chapter 04
00:21:36.753 : :Chapter 05
00:26:11.610 : :Chapter 06
00:31:32.180 : :Chapter 07
00:39:16.602 : :Chapter 08
00:46:36.833 : :Chapter 09
00:52:05.120 : :Chapter 10
00:58:14.864 : :Chapter 11
01:06:05.834 : :Chapter 12
01:13:12.384 : :Chapter 13
01:18:42.422 : :Chapter 14-x264 [info]: frame I:1031 Avg QP:15.51 size: 77374
x264 [info]: frame P:25374 Avg QP:19.86 size: 27973
x264 [info]: frame B:94411 Avg QP:22.58 size: 10434
x264 [info]: consecutive B-frames: 1.5% 1.4% 4.8% 30.1% 19.1% 30.3% 6.6% 2.3% 1.1% 2.8%

Скриншот с названием

Скриншоты



Сравнение скриншотов

Сравнение с этой раздачей:
http://rutracker.org/forum/viewtopic.php?t=3171396
http://screenshotcomparison.com/comparison/2062/
Показать сообщения:    

Текущее время: Сегодня 13:07

Часовой пояс: GMT



Вы не можете начинать темы
Вы не можете отвечать на сообщения
Вы не можете редактировать свои сообщения
Вы не можете удалять свои сообщения
Вы не можете голосовать в опросах
Вы не можете прикреплять файлы к сообщениям
Вы не можете скачивать файлы