Важное объявление!
У Нас Все раздачи мультитрекерные, при нуле пиров в релизах, можете смело вставать на закачку!
 
Автор Сообщение

HUNTER

Стаж:
4 года 4 месяца
Сообщений:
56733

Репутация: 101

[+] [-]
Вне форума [Профиль] [ЛС]

Том и Джерри: Маленькие помощники Санты / Tom and Jerry: Santa's Little Helpers
-Страна: США / WB Pictures
Жанр: мультфильм
Год выпуска: 2014
Продолжительность: 00:21:04
Перевод: Профессиональный (многоголосый закадровый)
Cубтитры: нет
Оригинальная аудиодорожка: английский
Режиссер: Даррел Ван Ситтерс / Darrell Van Citters
Роли озвучивали: Никки Брайар / Nickie Bryar, Марк Хэмилл / Mark Hamill, Эди МакКлёрг / Edie McClurg, Кэт Сауси / Kath Soucie, Рик Зефф / Rick Zieff, Эрик Бауза / Eric Bauza, Том Кенни / Tom Kenny
Описание: Джерри наслаждается счастливой жизнью в мастерской Санты, однако семья Клаусов решает приютить у себя Тома. Теперь Том живет в доме, и на северном полюсе начинается настоящая катавасия! Но сможет ли суматошная пара объединиться, чтобы спасти Рождество и узнать, что на самом деле значит дружба?

Качество: DVDRip-AVC / DVD9 R5 от СР Дистрибуция
Формат: MKV
Видео: 720x572@1024x572 (16:9), MPEG-4 AVC 1808 kbps / 25 fps / 0.176 bit/pix
Аудио 1: Russian: 48 kHz, AC3, 2/0 ch, 192.00 kbps
Аудио 2: English: 48 kHz, AC3, 2/0 ch, 192.00 kbps

MediaInfo

General
Format : Matroska
Format version : Version 4 / Version 2
File size : 331 MiB
Duration : 21mn 4s
Overall bit rate : 2 194 Kbps
Encoded date : UTC 2014-12-16 10:26:00
Writing application : mkvmerge v7.4.0 ('Circles') 64bit built on Dec 12 2014 12:19:56
Writing library : libebml v1.3.0 + libmatroska v1.4.1
DURATION : 00:21:04.000000000
NUMBER_OF_FRAMES : 39500
NUMBER_OF_BYTES : 30336000
_STATISTICS_WRITING_APP : mkvmerge v7.4.0 ('Circles') 64bit built on Dec 12 2014 12:19:56
_STATISTICS_WRITING_DATE_UTC : 2014-12-16 10:26:00
_STATISTICS_TAGS : BPS DURATION NUMBER_OF_FRAMES NUMBER_OF_BYTES
Video
ID : 1
Format : AVC
Format/Info : Advanced Video Codec
Format profile : High@L4.1
Format settings, CABAC : Yes
Format settings, ReFrames : 8 frames
Codec ID : V_MPEG4/ISO/AVC
Duration : 21mn 4s
Bit rate : 1 808 Kbps
Width : 720 pixels
Height : 572 pixels
Display aspect ratio : 16:9
Frame rate mode : Constant
Frame rate : 25.000 fps
Color space : YUV
Chroma subsampling : 4:2:0
Bit depth : 8 bits
Scan type : Progressive
Bits/(Pixel*Frame) : 0.176
Stream size : 266 MiB (81%)
Writing library : x264 core 138 r2356 a1d3d17
Encoding settings : cabac=1 / ref=8 / deblock=1:-2:-1 / analyse=0x3:0x113 / me=umh / subme=10 / psy=1 / psy_rd=1.00:0.05 / mixed_ref=1 / me_range=32 / chroma_me=1 / trellis=2 / 8x8dct=1 / cqm=0 / deadzone=21,11 / fast_pskip=0 / chroma_qp_offset=-3 / threads=9 / lookahead_threads=1 / sliced_threads=0 / nr=0 / decimate=0 / interlaced=0 / bluray_compat=0 / constrained_intra=0 / bframes=8 / b_pyramid=2 / b_adapt=2 / b_bias=0 / direct=3 / weightb=1 / open_gop=0 / weightp=2 / keyint=250 / keyint_min=25 / scenecut=40 / intra_refresh=0 / rc=2pass / mbtree=0 / bitrate=1808 / ratetol=1.0 / qcomp=0.60 / qpmin=0 / qpmax=69 / qpstep=4 / cplxblur=20.0 / qblur=0.5 / ip_ratio=1.40 / pb_ratio=1.30 / aq=1:1.00
Language : English
Default : Yes
Forced : No
DURATION : 00:21:04.000000000
NUMBER_OF_FRAMES : 31600
NUMBER_OF_BYTES : 285625018
_STATISTICS_WRITING_APP : mkvmerge v7.4.0 ('Circles') 64bit built on Dec 12 2014 12:19:56
_STATISTICS_WRITING_DATE_UTC : 2014-12-16 10:26:00
_STATISTICS_TAGS : BPS DURATION NUMBER_OF_FRAMES NUMBER_OF_BYTES
Audio #1
ID : 2
Format : AC-3
Format/Info : Audio Coding 3
Mode extension : CM (complete main)
Format settings, Endianness : Big
Codec ID : A_AC3
Duration : 21mn 4s
Bit rate mode : Constant
Bit rate : 192 Kbps
Channel(s) : 2 channels
Channel positions : Front: L R
Sampling rate : 48.0 KHz
Bit depth : 16 bits
Compression mode : Lossy
Stream size : 28.9 MiB (9%)
Language : Russian
Default : Yes
Forced : No
Audio #2
ID : 3
Format : AC-3
Format/Info : Audio Coding 3
Format profile : Dolby Digital
Mode extension : CM (complete main)
Format settings, Endianness : Big
Codec ID : A_AC3
Duration : 21mn 4s
Bit rate mode : Constant
Bit rate : 192 Kbps
Channel(s) : 2 channels
Channel positions : Front: L R
Sampling rate : 48.0 KHz
Bit depth : 16 bits
Compression mode : Lossy
Stream size : 28.9 MiB (9%)
Language : English
Default : No
Forced : No

Скриншоты:


_________________
Показать сообщения:    

Текущее время: Сегодня 18:37

Часовой пояс: GMT



Вы не можете начинать темы
Вы не можете отвечать на сообщения
Вы не можете редактировать свои сообщения
Вы не можете удалять свои сообщения
Вы не можете голосовать в опросах
Вы не можете прикреплять файлы к сообщениям
Вы не можете скачивать файлы