Важное объявление!
У Нас Все раздачи мультитрекерные, при нуле пиров в релизах, можете смело вставать на закачку!
 
Автор Сообщение

HUNTER

Стаж:
4 года 4 месяца
Сообщений:
56809

Репутация: 101

[+] [-]
Вне форума [Профиль] [ЛС]

Том и Джерри: Маленькие помощники Санты / Tom and Jerry: Santa's Little Helpers
-Страна: США / WB Pictures
Жанр: мультфильм
Год выпуска: 2014
Продолжительность: 00:21:04
Перевод: Профессиональный (многоголосый закадровый)
Cубтитры: нет
Оригинальная аудиодорожка: английский
Режиссер: Даррел Ван Ситтерс / Darrell Van Citters
Роли озвучивали: Никки Брайар / Nickie Bryar, Марк Хэмилл / Mark Hamill, Эди МакКлёрг / Edie McClurg, Кэт Сауси / Kath Soucie, Рик Зефф / Rick Zieff, Эрик Бауза / Eric Bauza, Том Кенни / Tom Kenny
Описание: Джерри наслаждается счастливой жизнью в мастерской Санты, однако семья Клаусов решает приютить у себя Тома. Теперь Том живет в доме, и на северном полюсе начинается настоящая катавасия! Но сможет ли суматошная пара объединиться, чтобы спасти Рождество и узнать, что на самом деле значит дружба?

Качество: DVDRip / DVD9 R5 от СР Дистрибуция
Формат: AVI
Видео: 720x400 (16:9), XviD 1799 kbps / 25 fps / 0.250 bit/pix
Аудио 1: Russian: 48 kHz, AC3, 2/0 ch, 192.00 kbps
Аудио 2: English: 48 kHz, AC3, 2/0 ch, 192.00 kbps

MediaInfo

General
Format : AVI
Format/Info : Audio Video Interleave
File size : 331 MiB
Duration : 21mn 4s
Overall bit rate : 2 198 Kbps
Writing application : VirtualDubModRus 1.5.10.2 (build 2542/release)
Writing library : VirtualDubMod build 2542/release
Video
ID : 0
Format : MPEG-4 Visual
Format profile : Advanced Simple@L5
Format settings, BVOP : 1
Format settings, QPel : No
Format settings, GMC : No warppoints
Format settings, Matrix : Custom
Codec ID : XVID
Codec ID/Hint : XviD
Duration : 21mn 4s
Bit rate : 1 799 Kbps
Width : 720 pixels
Height : 400 pixels
Display aspect ratio : 16:9
Frame rate : 25.000 fps
Color space : YUV
Chroma subsampling : 4:2:0
Bit depth : 8 bits
Scan type : Progressive
Compression mode : Lossy
Bits/(Pixel*Frame) : 0.250
Stream size : 271 MiB (82%)
Writing library : XviD 73
Audio #1
ID : 1
Format : AC-3
Format/Info : Audio Coding 3
Mode extension : CM (complete main)
Format settings, Endianness : Big
Codec ID : 2000
Duration : 21mn 4s
Bit rate mode : Constant
Bit rate : 192 Kbps
Channel(s) : 2 channels
Channel positions : Front: L R
Sampling rate : 48.0 KHz
Bit depth : 16 bits
Compression mode : Lossy
Stream size : 28.9 MiB (9%)
Alignment : Split accross interleaves
Interleave, duration : 40 ms (1.00 video frame)
Interleave, preload duration : 500 ms
Audio #2
ID : 2
Format : AC-3
Format/Info : Audio Coding 3
Format profile : Dolby Digital
Mode extension : CM (complete main)
Format settings, Endianness : Big
Codec ID : 2000
Duration : 21mn 4s
Bit rate mode : Constant
Bit rate : 192 Kbps
Channel(s) : 2 channels
Channel positions : Front: L R
Sampling rate : 48.0 KHz
Bit depth : 16 bits
Compression mode : Lossy
Stream size : 28.9 MiB (9%)
Alignment : Split accross interleaves
Interleave, duration : 40 ms (1.00 video frame)
Interleave, preload duration : 500 ms

Скриншоты:


_________________
Показать сообщения:    

Текущее время: Сегодня 20:25

Часовой пояс: GMT



Вы не можете начинать темы
Вы не можете отвечать на сообщения
Вы не можете редактировать свои сообщения
Вы не можете удалять свои сообщения
Вы не можете голосовать в опросах
Вы не можете прикреплять файлы к сообщениям
Вы не можете скачивать файлы