Важное объявление!
У Нас Все раздачи мультитрекерные, при нуле пиров в релизах, можете смело вставать на закачку!
 
Автор Сообщение

HUNTER

Стаж:
4 года 4 месяца
Сообщений:
56809

Репутация: 101

[+] [-]
Вне форума [Профиль] [ЛС]

Том и Джерри: История о Щелкунчике
Tom and Jerry: A Nutcracker Tale---
Год выхода: 2007
Выпущено: США
Жанр: мультфильм, комедия, семейный
Продолжительность: 00:46:52
Перевод: Профессиональный (полное дублирование) [Лицензия]
Режиссер: Спайк Брандт, Тони Червоне--Сюжет фильма:
В пустом оперном театре Джерри загадывает желание о собственных выступлениях, и магическим образом его мечта сбывается. Маленький мышонок переносится в волшебное королевство, где все возможно: конфетные леса, поющие снежинки, даже игрушки оживают!
Джерри отлично проводит время со своими новыми друзьями, когда он танцует с балериной из музыкальной коробки, он счастлив, как никогда ранее. К сожалению, бездомные кошки, приведенные Томом, врываются на вечеринку Джерри, похищают балерину из музыкальной коробки и приносят ужас в праздничное королевство. Теперь все зависит от Джерри, с помощью знакомой мышки Таффи и новых друзей он может все наладить!
--Качество: BDRip [720p]
Формат: MKV
Видео кодек: x264
Аудио кодек: AC3
Видео: 1280x720, 6493 Кбит/сек, 25,000 кадр/сек, AVC, x264, 16:9, 0.282 Бит/[Пиксели*Кадры], 2pass
Аудио: AC3, 192 Кбит/сек, 2 канала(ов), 48,0 КГц-- -- --

MI

Формат : Matroska
Версия формата : Version 2
Размер файла : 2,19 Гбайт
Продолжительность : 46 м.
Общий поток : 6687 Кбит/сек
Дата кодирования : UTC 2013-01-01 17:38:40
Программа кодирования : mkvmerge v5.8.0 ('No Sleep / Pillow') built on Sep 2 2012 15:37:04
Библиотека кодирования : libebml v1.2.3 + libmatroska v1.3.0
Видео
Идентификатор : 1
Формат : AVC
Формат/Информация : Advanced Video Codec
Профиль формата : [url=mailto:High@L3.1]High@L3.1[/url]
Параметр CABAC формата : Да
Параметр ReFrames формата : 4 кадра
Идентификатор кодека : V_MPEG4/ISO/AVC
Продолжительность : 46 м.
Битрейт : 6493 Кбит/сек
Ширина : 1280 пикселей
Высота : 720 пикселей
Соотношение сторон : 16:9
Режим частоты кадров : Постоянный
Частота кадров : 25,000 кадров/сек
Цветовое пространство : YUV
Субдискретизация насыщенности : 4:2:0
Битовая глубина : 8 бит
Тип развёртки : Прогрессивная
Бит/(Пиксели*Кадры) : 0.282
Размер потока : 2,08 Гбайт (95%)
Заголовок : Tom and Jerr
Библиотека кодирования : x264 core 129 r2230 1cffe9f
Настройки программы : cabac=1 / ref=3 / deblock=1:0:0 / analyse=0x3:0x133 / me=hex / subme=7 / psy=1 / psy_rd=1.00:0.00 / mixed_ref=1 / me_range=16 / chroma_me=1 / trellis=1 / 8x8dct=1 / cqm=0 / deadzone=21,11 / fast_pskip=1 / chroma_qp_offset=-2 / threads=6 / lookahead_threads=1 / sliced_threads=0 / nr=0 / decimate=1 / interlaced=0 / bluray_compat=0 / constrained_intra=0 / bframes=3 / b_pyramid=2 / b_adapt=1 / b_bias=0 / direct=1 / weightb=1 / open_gop=0 / weightp=2 / keyint=250 / keyint_min=25 / scenecut=40 / intra_refresh=0 / rc_lookahead=40 / rc=2pass / mbtree=1 / bitrate=6493 / ratetol=1.0 / qcomp=0.60 / qpmin=0 / qpmax=69 / qpstep=4 / cplxblur=20.0 / qblur=0.5 / ip_ratio=1.40 / aq=1:1.00
Язык : English
Default : Да
Forced : Нет
Аудио
Идентификатор : 2
Формат : AC-3
Формат/Информация : Audio Coding 3
Профиль формата : Dolby Digital
Расширение режима : CM (complete main)
Параметр Endianness формата : Big
Идентификатор кодека : A_AC3
Продолжительность : 46 м.
Вид битрейта : Постоянный
Битрейт : 192 Кбит/сек
Каналы : 2 канала
Расположение каналов : Front: L R
Частота : 48,0 КГц
Битовая глубина : 16 бит
Метод сжатия : С потерями
Размер потока : 64,4 Мбайт (3%)
Заголовок : DUB
Язык : Russian
Default : Да
Forced : Нет
--

_________________
Показать сообщения:    

Текущее время: Сегодня 19:14

Часовой пояс: GMT



Вы не можете начинать темы
Вы не можете отвечать на сообщения
Вы не можете редактировать свои сообщения
Вы не можете удалять свои сообщения
Вы не можете голосовать в опросах
Вы не можете прикреплять файлы к сообщениям
Вы не можете скачивать файлы