Важное объявление!
У Нас Все раздачи мультитрекерные, при нуле пиров в релизах, можете смело вставать на закачку!
 
Автор Сообщение

HUNTER

Стаж:
4 года 4 месяца
Сообщений:
56798

Репутация: 101

[+] [-]
Вне форума [Профиль] [ЛС]

Том и Джерри: Быстрый и бешеный / Tom and Jerry: The Fast and the Furry
Страна: США
Жанр: Мультипликация
Продолжительность: 01:14:36
Год выпуска: 2005
Перевод 1: Профессиональный (дублированный) Пифагор
Перевод 2: Профессиональный (многоголосый закадровый)
Перевод 3: Авторский (одноголосый закадровый) В.Белов
Русские субтитры: нет-Режиссёр: Билл Копп / Bill Kopp
Роли озвучивали: Чарльз Адлер, Джефф Беннетт, Джон Ди Маджио, Джесс Харнелл, Том Кенни, Билл Копп, Тресс МакНилл, Роб Полсен, Билли Уэст, Дж. Грант Альбрехт-Описание: Том и Джерри принимают участие в гонках под названием "Fabolous Super Race" в надежде получить Суперприз - шикарный особняк! Но даже во время гонки не перестают гонятся друг за другом, устраивая ловушки.-Релиз от -
СПАСИБО: Alukarrraaa за любезно предоставленный дубляж..-Качество: BDRemux 1080p
Формат: MKV
Видео: AVC, 1920x1080 (16:9), 23.976 fps, 21.9 Mbps (0.441 bit/pixel)
Аудио 1: AC-3, 48.0 KHz, 2 ch, 192 Kbps, CBR (Russian)
Аудио 2: AC-3, 48.0 KHz, 2 ch, 192 Kbps, CBR (Russian)
Аудио 3: DTS MA / Core, 48.0 KHz, 6 ch, 1 561 Kbps / 1 510 Kbps, VBR (Russian)
Аудио 4: DTS MA / Core, 48.0 KHz, 6 ch, 2 404 Kbps / 1 510 Kbps, VBR (English)
Субтитры: English
Семпл: Забираем тут
Подробные технические данные
ОбщееУникальный идентификатор : 184348657420053744598681292967912061808 (0x8AB0428C4C704E9191ABBB7575F6BB70)Полное имя : D:\Tom and Jerry The Fast and the Furry 2005 1080p Bluray Remux.mkvФормат : MatroskaВерсия формата : Version 4 / Version 2Размер файла : 14,0 ГбайтПродолжительность : 1 ч. 14 м.Режим общего битрейта : ПеременныйОбщий поток : 26,8 Мбит/секДата кодирования : UTC 2014-07-11 09:05:37Программа кодирования : mkvmerge v7.0.0 ('Where We Going') 32bit built on Jun 9 2014 15:08:34Библиотека кодирования : libebml v1.3.0 + libmatroska v1.4.1DURATION : 01:14:36.448000000NUMBER_OF_FRAMES : 139889NUMBER_OF_BYTES : 107434752_STATISTICS_WRITING_APP : mkvmerge v7.0.0 ('Where We Going') 32bit built on Jun 9 2014 15:08:34_STATISTICS_WRITING_DATE_UTC : 2014-07-11 09:05:37_STATISTICS_TAGS : BPS DURATION NUMBER_OF_FRAMES NUMBER_OF_BYTES
ВидеоИдентификатор : 1Формат : AVCФормат/Информация : Advanced Video CodecПрофиль формата : High@L4.1Параметр CABAC формата : ДаПараметр ReFrames формата : 2 кадраИдентификатор кодека : V_MPEG4/ISO/AVCПродолжительность : 1 ч. 14 м.Вид битрейта : ПеременныйШирина : 1920 пикселейВысота : 1080 пикселейСоотношение сторон : 16:9Режим частоты кадров : ПостоянныйЧастота кадров : 23,976 кадра/секЦветовое пространство : YUVСубдискретизация насыщенности : 4:2:0Битовая глубина : 8 битТип развёртки : ПрогрессивнаяЯзык : EnglishDefault : ДаForced : Нет
Аудио #1Идентификатор : 2Формат : AC-3Формат/Информация : Audio Coding 3Расширение режима : CM (complete main)Параметр Endianness формата : BigИдентификатор кодека : A_AC3Продолжительность : 1 ч. 14 м.Вид битрейта : ПостоянныйБитрейт : 192 Кбит/секКаналы : 2 каналаРасположение каналов : Front: L RЧастота : 48,0 КГцБитовая глубина : 16 битМетод сжатия : С потерямиРазмер потока : 102 Мбайт (1%)Заголовок : DUBЯзык : RussianDefault : ДаForced : Нет
Аудио #2Идентификатор : 3Формат : AC-3Формат/Информация : Audio Coding 3Расширение режима : CM (complete main)Параметр Endianness формата : BigИдентификатор кодека : A_AC3Продолжительность : 1 ч. 14 м.Вид битрейта : ПостоянныйБитрейт : 192 Кбит/секКаналы : 2 каналаРасположение каналов : Front: L RЧастота : 48,0 КГцБитовая глубина : 16 битМетод сжатия : С потерямиРазмер потока : 102 Мбайт (1%)Заголовок : MVOЯзык : RussianDefault : НетForced : Нет
Аудио #3Идентификатор : 4Формат : DTSФормат/Информация : Digital Theater SystemsПрофиль формата : MA / CoreРежим : 16Параметр Endianness формата : BigИдентификатор кодека : A_DTSПродолжительность : 1 ч. 14 м.Вид битрейта : ПеременныйБитрейт : Неизвестно / 1509 Кбит/секКаналы : 6 каналовРасположение каналов : Front: L C R, Side: L R, LFEЧастота : 48,0 КГцБитовая глубина : 24 битМетод сжатия : Без потерь / LossyЗаголовок : AVOЯзык : RussianDefault : НетForced : Нет
Аудио #4Идентификатор : 5Формат : DTSФормат/Информация : Digital Theater SystemsПрофиль формата : MA / CoreРежим : 16Параметр Endianness формата : BigИдентификатор кодека : A_DTSПродолжительность : 1 ч. 14 м.Вид битрейта : ПеременныйБитрейт : Неизвестно / 1509 Кбит/секКаналы : 6 каналовРасположение каналов : Front: L C R, Side: L R, LFEЧастота : 48,0 КГцБитовая глубина : 24 битМетод сжатия : Без потерь / LossyЯзык : EnglishDefault : НетForced : Нет
ТекстИдентификатор : 6Формат : UTF-8Идентификатор кодека : S_TEXT/UTF8Идентификатор кодека/Информация : UTF-8 Plain TextЯзык : EnglishDefault : НетForced : Нет
Меню00:00:00.000 : :(безымянный)00:01:19.077 : :(безымянный)00:06:09.994 : :(безымянный)00:14:40.546 : :(безымянный)00:22:03.320 : :(безымянный)00:26:02.351 : :(безымянный)00:30:24.864 : :(безымянный)00:38:47.241 : :(безымянный)00:49:26.129 : :(безымянный)00:52:49.040 : :(безымянный)01:00:01.597 : :(безымянный)01:06:15.137 : :(безымянный)01:11:34.289 : :(безымянный)
Скриншоты

_________________
Показать сообщения:    

Текущее время: Сегодня 21:14

Часовой пояс: GMT



Вы не можете начинать темы
Вы не можете отвечать на сообщения
Вы не можете редактировать свои сообщения
Вы не можете удалять свои сообщения
Вы не можете голосовать в опросах
Вы не можете прикреплять файлы к сообщениям
Вы не можете скачивать файлы