Важное объявление!
У Нас Все раздачи мультитрекерные, при нуле пиров в релизах, можете смело вставать на закачку!
 
Автор Сообщение

HUNTER

Стаж:
4 года 4 месяца
Сообщений:
56719

Репутация: 101

[+] [-]
Вне форума [Профиль] [ЛС]

Только бизнес / Strictly Business
Страна: США
Студия: Island World
Жанр: мелодрама, комедия
Год выпуска: 1991
Продолжительность: 01:22:57
Перевод : Авторский (одноголосый закадровый) Андрей Гаврилов
Cубтитры: английские
Оригинальная аудиодорожка: Английский
Режиссер: Кевин Хукс / Kevin Hooks
В ролях: Томми Дэвидсон, Джозеф С. Филлипс, Энн-Мари Джонсон, Дэвид Маршалл Грант, Джон Сайфер, Сэмюэл Л. Джексон, Холли Берри, Ким Коулз, Пол Батлер, Джеймс МакДэниэл, Энни Голден, Сэм Рокуэлл
Описание: Бобби работает посыльным в большой фирме по продаже недвижимости. Его лучший друг Вэймон, что называется «белый» афро-американец, почти уже партнер этой же фирмы. Они договариваются о том, что Вэймон устраивает Бобби в некую крутую программу обучения брокерству, а Бобби в свою очередь устраивает Вэймону свидание с Натали — девушкой мечты Вэймона…

Качество видео:WEB-DL 1080p
Формат видео: MKV
Видео кодек: H264
Аудио кодек: AC3
Видео: 1908x1076 (1.77:1), 23,976 fps, ~5009 kbps avg, 0.102 bit/pixel
Аудио 1: 48 kHz, AC3 Dolby Digital, 2/0 (L,R) ch, ~192 kbps - Гаврилов
Аудио 2: 48 kHz, AC3 Dolby Digital, 2/0 (L,R) ch, ~192 kbps - Оригинал

MediaInfo

Полное имя : Только бизнес 1991.mkv
Формат : Matroska
Версия формата : Version 4 / Version 2
Размер файла : 3,19 Гбайт
Продолжительность : 1 ч. 22 м.
Общий поток : 5502 Кбит/сек
Дата кодирования : UTC 2014-07-16 10:25:41
Программа кодирования : mkvmerge v6.5.0 ('Isn't she lovely') built on Oct 20 2013 12:50:05
Библиотека кодирования : libebml v1.3.0 + libmatroska v1.4.1
Видео
Идентификатор : 1
Формат : AVC
Формат/Информация : Advanced Video Codec
Профиль формата : High@L4.0
Параметр CABAC формата : Да
Параметр ReFrames формата : 4 кадра
Идентификатор кодека : V_MPEG4/ISO/AVC
Продолжительность : 1 ч. 22 м.
Битрейт : 5009 Кбит/сек
Ширина : 1908 пикселей
Высота : 1076 пикселей
Соотношение сторон : 16:9
Режим частоты кадров : Постоянный
Частота кадров : 23,976 кадра/сек
Цветовое пространство : YUV
Субдискретизация насыщенности : 4:2:0
Битовая глубина : 8 бит
Тип развёртки : Прогрессивная
Бит/(Пиксели*Кадры) : 0.102
Размер потока : 2,90 Гбайт (91%)
Язык : English
Default : Да
Forced : Нет
Основные цвета : BT.709
Характеристики трансфера : BT.709
Коэффициенты матрицы : BT.709
Аудио #1
Идентификатор : 2
Формат : AC-3
Формат/Информация : Audio Coding 3
Расширение режима : CM (complete main)
Параметр Endianness формата : Big
Идентификатор кодека : A_AC3
Продолжительность : 1 ч. 22 м.
Вид битрейта : Постоянный
Битрейт : 192 Кбит/сек
Каналы : 2 канала
Расположение каналов : Front: L R
Частота : 48,0 КГц
Битовая глубина : 16 бит
Метод сжатия : С потерями
Размер потока : 114 Мбайт (3%)
Язык : Russian
Default : Да
Forced : Нет
Аудио #2
Идентификатор : 3
Формат : AC-3
Формат/Информация : Audio Coding 3
Расширение режима : CM (complete main)
Параметр Endianness формата : Big
Идентификатор кодека : A_AC3
Продолжительность : 1 ч. 22 м.
Вид битрейта : Постоянный
Битрейт : 192 Кбит/сек
Каналы : 2 канала
Расположение каналов : Front: L R
Частота : 48,0 КГц
Битовая глубина : 16 бит
Метод сжатия : С потерями
Размер потока : 114 Мбайт (3%)
Язык : English
Default : Нет
Forced : Нет
Текст
Идентификатор : 4
Формат : UTF-8
Идентификатор кодека : S_TEXT/UTF8
Идентификатор кодека/Информация : UTF-8 Plain Text
Язык : English
Default : Нет
Forced : Нет
Меню
00:00:00.000 : en:Chapter 1
00:11:38.000 : en:Chapter 2
00:20:52.000 : en:Chapter 3
00:33:37.000 : en:Chapter 4
00:39:46.000 : en:Chapter 5
00:52:54.000 : en:Chapter 6
01:00:19.000 : en:Chapter 7
01:10:38.000 : en:Chapter 8

Скриншоты


DVD vs WEBDL

_________________
Показать сообщения:    

Текущее время: Сегодня 18:58

Часовой пояс: GMT



Вы не можете начинать темы
Вы не можете отвечать на сообщения
Вы не можете редактировать свои сообщения
Вы не можете удалять свои сообщения
Вы не можете голосовать в опросах
Вы не можете прикреплять файлы к сообщениям
Вы не можете скачивать файлы