Важное объявление!
У Нас Все раздачи мультитрекерные, при нуле пиров в релизах, можете смело вставать на закачку!
 
Автор Сообщение

HUNTER

Стаж:
4 года 4 месяца
Сообщений:
56853

Репутация: 101

[+] [-]
Вне форума [Профиль] [ЛС]

Токийский монстр / Tokyo Ghoul-
Страна: Япония
Год выпуска: 2014 г.
Жанр: приключения
Тип: TV
Продолжительность: >12 эп. по 25 мин
Режиссер: Морита Сюхэй
Студия: Studio Pierrot-Описание: Токио сотрясает серия жестоких убийств, на местах преступлений туго с уликами, но все уверены, что виновники – монстры, пожирающие людей, хотя никто толком не знает, кто они или как выглядят. А двое студентов колледжа – Канеки и Хиде – считают, что монстры до сих пор не обнаружили только потому, что они очень ловко маскируются под своих жертв... Однажды в своём любимом кафе Канеки знакомится с Ризе, девушкой столь же охочей до чтения, как и он сам. Парень ещё и не подозревает, что вся его жизнь вот-вот измениться самым кардинальным образом.-Качество: HDTVRip
Тип релиза: Без хардсаба
Формат видео: mp4
Релиз/Автор рипа: Zero-Raws-Видео: H264, 1 487 Kbps, 1280x720, 23.976 fps, 8 bit
Аудио: JAP, AAC, 252 kbps, 48000 Hz, 2ch
Субтитры: ASS, внешние; Язык субтитров русский; Перевод команд: Cafesubs
L Перевод: Anku
Редактура: mutagenb
Подробные тех. данные
GeneralComplete name : D:\[Zero-Raws] Tokyo Ghoul - 01 (MX 1280x720 x264 AAC).mp4Format : MPEG-4Format profile : Base MediaCodec ID : isomFile size : 306 MiBDuration : 24mn 30sOverall bit rate mode : VariableOverall bit rate : 1 744 KbpsEncoded date : UTC 2014-07-03 16:26:53Tagged date : UTC 2014-07-03 16:26:53
VideoID : 1Format : AVCFormat/Info : Advanced Video CodecFormat profile : High@L3.1Format settings, CABAC : YesFormat settings, ReFrames : 4 framesCodec ID : avc1Codec ID/Info : Advanced Video CodingDuration : 24mn 29sBit rate : 1 487 KbpsMaximum bit rate : 8 918 KbpsWidth : 1 280 pixelsHeight : 720 pixelsDisplay aspect ratio : 16:9Frame rate mode : ConstantFrame rate : 23.976 fpsColor space : YUVChroma subsampling : 4:2:0Bit depth : 8 bitsScan type : ProgressiveBits/(Pixel*Frame) : 0.067Stream size : 261 MiB (85%)Writing library : x264 core 133 r2334 a3ac64bEncoding settings : cabac=1 / ref=3 / deblock=1:0:0 / analyse=0x3:0x113 / me=hex / subme=7 / psy=1 / psy_rd=1.00:0.00 / mixed_ref=1 / me_range=16 / chroma_me=1 / trellis=1 / 8x8dct=1 / cqm=0 / deadzone=21,11 / fast_pskip=1 / chroma_qp_offset=-2 / threads=12 / lookahead_threads=2 / sliced_threads=0 / nr=0 / decimate=1 / interlaced=0 / bluray_compat=0 / constrained_intra=0 / bframes=3 / b_pyramid=2 / b_adapt=1 / b_bias=0 / direct=1 / weightb=1 / open_gop=0 / weightp=2 / keyint=250 / keyint_min=23 / scenecut=40 / intra_refresh=0 / rc_lookahead=40 / rc=crf / mbtree=1 / crf=19.5 / qcomp=0.60 / qpmin=0 / qpmax=69 / qpstep=4 / ip_ratio=1.40 / aq=1:1.00Encoded date : UTC 2014-07-03 16:04:03Tagged date : UTC 2014-07-03 16:26:55
AudioID : 2Format : AACFormat/Info : Advanced Audio CodecFormat profile : LCCodec ID : 40Duration : 24mn 30sBit rate mode : VariableBit rate : 252 KbpsMaximum bit rate : 260 KbpsChannel(s) : 2 channelsChannel positions : Front: L RSampling rate : 48.0 KHzCompression mode : LossyStream size : 44.2 MiB (14%)Title : aac#trackID=1:lang=Japanese@GPAC0.5.1-DEV-rev4708Language : JapaneseEncoded date : UTC 2014-07-03 16:26:54Tagged date : UTC 2014-07-03 16:26:55
Список эпизодов
01 - Episode 1
Скриншоты

_________________
Показать сообщения:    

Текущее время: Сегодня 13:04

Часовой пояс: GMT



Вы не можете начинать темы
Вы не можете отвечать на сообщения
Вы не можете редактировать свои сообщения
Вы не можете удалять свои сообщения
Вы не можете голосовать в опросах
Вы не можете прикреплять файлы к сообщениям
Вы не можете скачивать файлы
Наши партнеры: интернет магазин Ивановского трикотажа textilla.ru