Важное объявление!
У Нас Все раздачи мультитрекерные, при нуле пиров в релизах, можете смело вставать на закачку!
 
Автор Сообщение

HUNTER

Стаж:
4 года 4 месяца
Сообщений:
56755

Репутация: 101

[+] [-]
Вне форума [Профиль] [ЛС]

Тихая улица / Беспечная улица / Easy Street-
Год выпуска: 1917
Страна: США
Жанр: комедия
Продолжительность: 00:27:01
Перевод: Субтитры
Оригинальная аудиодорожка: музыкальное сопровождение
Cубтитры: Русские, английские интертитры-Режиссер: Чарльз Чаплин / Charles Chaplin
В ролях: Чарльз Чаплин, Эдна Первиэнс, Эрик Кэмпбелл, Альберт Остин, Ллойд Бэйкон, Генри Бергман, Фрэнк Дж. Коулмэн, Уильям Гиллеспи, Джеймс Т. Келли, Шарлотта Мино-Описание:
В этом фильме Чарли как бы начинает новую жизнь — он поступает на работу в полицию. В полиции его направляют на самый опасный участок — на одну из «тихих улиц» городских трущоб, которую единовластно держит в страхе местный «авторитет». Схватка щуплого Чарли и громадного верзилы неизбежна.- | IMDb | Сэмпл-Качество: BDRemux 1080p (Chaplin's Mutual Comedies 1916-1917 1080p Blu-ray AVC DD 2.0, thx batier22)
Контейнер: MKV
Видео: AVC, 1920x1080 (1.33:1), 23.976 fps, 25000 kbps
Аудио 1: AС3, 2.0, 48 kHz, 192 kbps — Music by Neil Brand
Аудио 2: AС3, 2.0, 48 kHz, 192 kbps— Alternate Improvisational Piano by Donald Sosin
Формат субтитров: softsub (SRT)

Скриншоты


MI

General
Unique ID : 186017685465847912373641672421835690442 (0x8BF1B3FBE6388263BB672047536251CA)
Complete name : Easy.Street.1917.1080p.Remux.mkv
Format : Matroska
Format version : Version 2
File size : 4.79 GiB
Duration : 27mn 1s
Overall bit rate mode : Variable
Overall bit rate : 25.4 Mbps
Movie name : Easy Street / Тихая улица (1917) – RuTracker
Encoded date : UTC 2014-08-27 20:12:05
Writing application : mkvmerge v7.0.0 ('Where We Going') 64bit built on Jun 9 2014 15:16:27
Writing library : libebml v1.3.0 + libmatroska v1.4.1
Attachment : Yes
Video
ID : 1
Format : AVC
Format/Info : Advanced Video Codec
Format profile : High@L4.1
Format settings, CABAC : Yes
Format settings, ReFrames : 4 frames
Format settings, GOP : M=3, N=24
Codec ID : V_MPEG4/ISO/AVC
Duration : 27mn 1s
Bit rate mode : Variable
Bit rate : 24.5 Mbps
Maximum bit rate : 35.0 Mbps
Width : 1 920 pixels
Height : 1 080 pixels
Display aspect ratio : 16:9
Frame rate mode : Constant
Frame rate : 23.976 fps
Standard : NTSC
Color space : YUV
Chroma subsampling : 4:2:0
Bit depth : 8 bits
Scan type : Progressive
Bits/(Pixel*Frame) : 0.493
Stream size : 4.62 GiB (96%)
Title : Chaplin's Mutual Comedies 1916-1917 1080p Blu-ray AVC DD 2.0
Language : English
Default : Yes
Forced : No
Color primaries : BT.709
Transfer characteristics : BT.709
Matrix coefficients : BT.709
Audio #1
ID : 2
Format : AC-3
Format/Info : Audio Coding 3
Mode extension : CM (complete main)
Format settings, Endianness : Big
Codec ID : A_AC3
Duration : 27mn 1s
Bit rate mode : Constant
Bit rate : 192 Kbps
Channel(s) : 2 channels
Channel positions : Front: L R
Sampling rate : 48.0 KHz
Bit depth : 16 bits
Compression mode : Lossy
Stream size : 37.1 MiB (1%)
Title : Music by Neil Brand
Default : Yes
Forced : No
Audio #2
ID : 3
Format : AC-3
Format/Info : Audio Coding 3
Mode extension : CM (complete main)
Format settings, Endianness : Big
Codec ID : A_AC3
Duration : 27mn 1s
Bit rate mode : Constant
Bit rate : 192 Kbps
Channel(s) : 2 channels
Channel positions : Front: L R
Sampling rate : 48.0 KHz
Bit depth : 16 bits
Compression mode : Lossy
Stream size : 37.1 MiB (1%)
Title : Alternate Improvisational Piano by Donald Sosin
Default : No
Forced : No
Text
ID : 4
Format : UTF-8
Codec ID : S_TEXT/UTF8
Codec ID/Info : UTF-8 Plain Text
Default : Yes
Forced : No
Menu
00:00:00.000 : en:Chapter 1
00:04:58.882 : en:Chapter 2
00:08:50.739 : en:Chapter 3
00:14:24.781 : en:Chapter 4
00:22:18.963 : en:Chapter 5

_________________
Показать сообщения:    

Текущее время: Сегодня 12:41

Часовой пояс: GMT



Вы не можете начинать темы
Вы не можете отвечать на сообщения
Вы не можете редактировать свои сообщения
Вы не можете удалять свои сообщения
Вы не можете голосовать в опросах
Вы не можете прикреплять файлы к сообщениям
Вы не можете скачивать файлы