Важное объявление!
У Нас Все раздачи мультитрекерные, при нуле пиров в релизах, можете смело вставать на закачку!
 
Автор Сообщение

HUNTER

Стаж:
4 года 4 месяца
Сообщений:
56809

Репутация: 101

[+] [-]
Вне форума [Профиль] [ЛС]

Тихая застава
Страна: Россия
Студия: Мосфильм Киноконцерн
Жанр: Драма, военный
Год выпуска: 2010
Продолжительность: 01:32:09
Перевод: Не требуется
Cубтитры: нет
Режиссер: Сергей Маховиков
В ролях: Андрей Чадов, Сергей Селин, Игорь Савочкин, Раджаб Хусейнов, Фаридуншо Рахматуллоев, Нина Корниенко, Нино Нинидзе, Юрий Коновалов, Александр Алёшкин, Азамат Нигманов
Описание: Бой на 12-й пограничной заставе Московского погранотряда в Республике Таджикистан произошел во вторник 13 июля 1993 года. Афганские и таджикские боевики попытались прорваться на территорию этой страны. Российские военные 11 часов отражали атаки противника, 25 человек погибло. После этого наши отступили. Позднее в тот же день застава была отбита. По итогам боя шестеро пограничников были удостоены звания Героя Российской Федерации, в том числе четверо — посмертно.
Сэмпл: http://multi-up.com/509324
Тип релиза: BDRip 720p
Контейнер: MKV
Видео: MPEG-4 AVC, 6153 Кбит/с, 1280x544, 23.976 fps
Аудио: AC3, 6 ch, 640 Кбит/с, 48 KHz

MediaInfo

General
Complete name : D:\Tihaya.zastava.2010.x264.BDRip.720p.Freeisland.mkv
Format : Matroska
File size : 4.37 GiB
Duration : 1h 32mn
Overall bit rate : 6 790 Kbps
Encoded date : UTC 2011-06-17 00:05:42
Writing application : mkvmerge v4.8.0 ('I Got The...') built on May 24 2011 03:12:58
Writing library : libebml v1.2.0 + libmatroska v1.1.0
Video
ID : 1
Format : AVC
Format/Info : Advanced Video Codec
Format profile : High@L4.1
Format settings, CABAC : Yes
Format settings, ReFrames : 12 frames
Muxing mode : Container profile=Unknown@4.1
Codec ID : V_MPEG4/ISO/AVC
Duration : 1h 32mn
Bit rate : 6 015 Kbps
Nominal bit rate : 6 153 Kbps
Width : 1 280 pixels
Height : 544 pixels
Display aspect ratio : 2.35:1
Frame rate : 23.976 fps
Resolution : 8 bits
Colorimetry : 4:2:0
Scan type : Progressive
Bits/(Pixel*Frame) : 0.360
Stream size : 3.87 GiB (88%)
Writing library : x264 core 115 r1995 c1e60b9
Encoding settings : cabac=1 / ref=12 / deblock=1:-3:-3 / analyse=0x3:0x113 / me=umh / subme=8 / psy=1 / psy_rd=1.00:0.15 / mixed_ref=1 / me_range=32 / chroma_me=1 / trellis=1 / 8x8dct=1 / cqm=0 / deadzone=21,11 / fast_pskip=0 / chroma_qp_offset=-3 / threads=6 / sliced_threads=0 / nr=0 / decimate=1 / interlaced=0 / bluray_compat=0 / constrained_intra=0 / bframes=8 / b_pyramid=2 / b_adapt=2 / b_bias=0 / direct=3 / weightb=1 / open_gop=0 / weightp=2 / keyint=250 / keyint_min=23 / scenecut=40 / intra_refresh=0 / rc_lookahead=50 / rc=2pass / mbtree=1 / bitrate=6153 / ratetol=1.0 / qcomp=0.60 / qpmin=0 / qpmax=69 / qpstep=4 / cplxblur=20.0 / qblur=0.5 / ip_ratio=1.40 / aq=1:1.00
Audio
ID : 2
Format : AC-3
Format/Info : Audio Coding 3
Codec ID : A_AC3
Duration : 1h 32mn
Bit rate mode : Constant
Bit rate : 640 Kbps
Channel(s) : 6 channels
Channel positions : Front: L C R, Surround: L R, LFE
Sampling rate : 48.0 KHz
Stream size : 422 MiB (9%)
Language : Russian
Menu
00:00:00.000 : en:00:00:00.000
00:08:39.102 : en:00:08:39.102
00:16:49.217 : en:00:16:49.217
00:25:13.637 : en:00:25:13.637
00:36:15.298 : en:00:36:15.298
00:44:21.784 : en:00:44:21.784
00:54:13.459 : en:00:54:13.459
01:03:44.237 : en:01:03:44.237
01:13:11.053 : en:01:13:11.053
01:20:49.970 : en:01:20:49.970
01:28:03.278 : en:01:28:03.278

Скриншоты


_________________
Показать сообщения:    

Текущее время: Сегодня 18:05

Часовой пояс: GMT



Вы не можете начинать темы
Вы не можете отвечать на сообщения
Вы не можете редактировать свои сообщения
Вы не можете удалять свои сообщения
Вы не можете голосовать в опросах
Вы не можете прикреплять файлы к сообщениям
Вы не можете скачивать файлы