Важное объявление!
У Нас Все раздачи мультитрекерные, при нуле пиров в релизах, можете смело вставать на закачку!
 
Автор Сообщение

HUNTER

Стаж:
4 года 4 месяца
Сообщений:
56829

Репутация: 101

[+] [-]
Вне форума [Профиль] [ЛС]

Тихая застава
Страна: Россия
Студия: Мосфильм Киноконцерн
Жанр: Драма, военный
Год выпуска: 2010
Продолжительность: 01:32:09
Перевод: Не требуется
Cубтитры: нет
Режиссер: Сергей Маховиков
В ролях: Андрей Чадов, Сергей Селин, Игорь Савочкин, Раджаб Хусейнов, Фаридуншо Рахматуллоев, Нина Корниенко, Нино Нинидзе, Юрий Коновалов, Александр Алёшкин, Азамат Нигманов
Описание: Бой на 12-й пограничной заставе Московского погранотряда в Республике Таджикистан произошел во вторник 13 июля 1993 года. Афганские и таджикские боевики попытались прорваться на территорию этой страны. Российские военные 11 часов отражали атаки противника, 25 человек погибло. После этого наши отступили. Позднее в тот же день застава была отбита. По итогам боя шестеро пограничников были удостоены звания Героя Российской Федерации, в том числе четверо — посмертно.
Сэмпл: http://depositfiles.com/ru/files/bam3vsf2v
Тип релиза: BDRip 1080p
Контейнер: MKV
Видео: MPEG-4 AVC, 13.5 Мбит/с, 1916х812, 23.976 fps
Аудио: Русский (AC3, 6 ch, 640 Кбит/с, 48 KHz)

MediaInfo

General
Complete name : D:\Tihaja.zastava.2010.x264.BDRip.(1080p).mkv
Format : Matroska
File size : 9.27 GiB
Duration : 1h 32mn
Overall bit rate : 14.4 Mbps
Movie name : Tihaya Zastava / 2011 / Release by Vaippp
Encoded date : UTC 2011-06-17 16:56:25
Writing application : mkvmerge v4.8.0 ('I Got The...') сборка от May 24 2011 03:12:58
Writing library : libebml v1.2.0 + libmatroska v1.1.0
Video
ID : 1
Format : AVC
Format/Info : Advanced Video Codec
Format profile : High@L4.1
Format settings, CABAC : Yes
Format settings, ReFrames : 5 frames
Muxing mode : Container profile=Unknown@4.1
Codec ID : V_MPEG4/ISO/AVC
Duration : 1h 32mn
Bit rate : 13.5 Mbps
Nominal bit rate : 13.8 Mbps
Width : 1 916 pixels
Height : 812 pixels
Display aspect ratio : 2.35:1
Frame rate : 23.976 fps
Resolution : 8 bits
Colorimetry : 4:2:0
Scan type : Progressive
Bits/(Pixel*Frame) : 0.361
Stream size : 8.67 GiB (93%)
Title : BDRip 1080p by Vaippp
Writing library : x264 core 115 r1995 c1e60b9
Encoding settings : cabac=1 / ref=5 / deblock=1:-3:-3 / analyse=0x3:0x133 / me=umh / subme=8 / psy=1 / psy_rd=1.00:0.05 / mixed_ref=1 / me_range=32 / chroma_me=1 / trellis=1 / 8x8dct=1 / cqm=0 / deadzone=21,11 / fast_pskip=1 / chroma_qp_offset=-3 / threads=12 / sliced_threads=0 / nr=0 / decimate=1 / interlaced=0 / bluray_compat=0 / constrained_intra=0 / bframes=3 / b_pyramid=2 / b_adapt=1 / b_bias=0 / direct=1 / weightb=1 / open_gop=0 / weightp=2 / keyint=250 / keyint_min=23 / scenecut=40 / intra_refresh=0 / rc_lookahead=40 / rc=2pass / mbtree=0 / bitrate=13799 / ratetol=1.0 / qcomp=0.65 / qpmin=1 / qpmax=65 / qpstep=4 / cplxblur=20.0 / qblur=0.5 / vbv_maxrate=40000 / vbv_bufsize=40000 / nal_hrd=none / ip_ratio=1.40 / pb_ratio=1.30 / aq=2:1.00
Language : Russian
Audio
ID : 2
Format : AC-3
Format/Info : Audio Coding 3
Codec ID : A_AC3
Duration : 1h 32mn
Bit rate mode : Constant
Bit rate : 640 Kbps
Channel(s) : 6 channels
Channel positions : Front: L C R, Surround: L R, LFE
Sampling rate : 48.0 KHz
Stream size : 422 MiB (4%)
Title : Original
Language : Russian
Menu
00:00:00.000 : ru:00:00:00.000
00:08:39.102 : ru:00:08:39.102
00:16:49.217 : ru:00:16:49.217
00:25:13.637 : ru:00:25:13.637
00:36:15.298 : ru:00:36:15.298
00:44:21.784 : ru:00:44:21.784
00:54:13.459 : ru:00:54:13.459
01:03:44.237 : ru:01:03:44.237
01:13:11.053 : ru:01:13:11.053
01:20:49.970 : ru:01:20:49.970
01:28:03.278 : ru:01:28:03.278

Скриншоты


_________________
Показать сообщения:    

Текущее время: Сегодня 18:09

Часовой пояс: GMT



Вы не можете начинать темы
Вы не можете отвечать на сообщения
Вы не можете редактировать свои сообщения
Вы не можете удалять свои сообщения
Вы не можете голосовать в опросах
Вы не можете прикреплять файлы к сообщениям
Вы не можете скачивать файлы