Важное объявление!
У Нас Все раздачи мультитрекерные, при нуле пиров в релизах, можете смело вставать на закачку!
 
Автор Сообщение

mihis

[Профиль] [ЛС]

Тихая гавань / Safe Haven«Важно не то, от чего ты бежишь, а то, к чему ты приходишь»Год выпуска: 2013
Страна: США | Nicholas Sparks Productions, Relativity Media...
Жанр: Триллер, драма, мелодрама, детектив
Продолжительность: 01:55:32
Перевод: Профессиональный (полное дублирование) Лицензия
Cубтитры: нет
Режиссер: Лассе Халльстрём
В ролях: Джулианна Хаф, Джош Дюамель, Дэвид Лайонс, Коби Смолдерс, Мими Кирклэнд, Ной Ломакс, Ред Уэст, Робин Маллинз, Ирен Циглер, Рик Рейц...
Описание: Кэти много лет страдала от жестокости мужа. Потеряв надежду на спасение, она совершила отчаянный побег и обрела «тихую гавань» в маленьком спокойном южном городке. Но готова ли Кэти к новым отношениям? Способна ли вновь поверить мужчине, понять его и полюбить? Даже если речь идет о таком обаятельном человеке, как молодой вдовец Алекс Уитли. Алекс и Кэти идут по тонкому льду неизвестности, — а между тем муж Кэти уже начал ее поиски.

Качество: BDRip-AVC
Формат: MKV
Видео кодек: H.26x
Аудио кодек: AC3
Видео: 1024x576 (16:9), 23.976 fps, H264 ~ 2259 kbps avg, 0.160 bit/pixel
Аудио: 48 kHz, AC3 6 ch, 448 kbps

MediaInfo

Tihaya.gavan.2013.D.BDRip-AVC_[Youtracker]_by_avproh.mkv
Формат : Matroska
Версия формата : Version 4 / Version 2
Размер файла : 2,19 Гбайт
Продолжительность : 1 ч. 55 м.
Общий поток : 2709 Кбит/сек
Дата кодирования : UTC 2013-04-22 03:47:51
Программа кодирования : mkvmerge v6.1.0 ('Old Devil') built on Mar 2 2013 14:32:37
Библиотека кодирования : libebml v1.3.0 + libmatroska v1.4.0
Видео
Идентификатор : 1
Формат : AVC
Формат/Информация : Advanced Video Codec
Профиль формата : High@L4.1
Параметр CABAC формата : Да
Параметр ReFrames формата : 11 кадров
Идентификатор кодека : V_MPEG4/ISO/AVC
Продолжительность : 1 ч. 55 м.
Битрейт : 2259 Кбит/сек
Ширина : 1024 пикселя
Высота : 576 пикселей
Соотношение сторон : 16:9
Режим частоты кадров : Постоянный
Частота кадров : 23,976 кадра/сек
Цветовое пространство : YUV
Субдискретизация насыщенности : 4:2:0
Битовая глубина : 8 бит
Тип развёртки : Прогрессивная
Бит/(Пиксели*Кадры) : 0.160
Размер потока : 1,78 Гбайт (81%)
Библиотека кодирования : x264 core 119 r2106 07efeb4
Настройки программы : cabac=1 / ref=11 / deblock=1:-2:-1 / analyse=0x3:0x113 / me=umh / subme=9 / psy=1 / psy_rd=1.00:0.10 / mixed_ref=1 / me_range=32 / chroma_me=1 / trellis=2 / 8x8dct=1 / cqm=0 / deadzone=21,11 / fast_pskip=1 / chroma_qp_offset=-3 / threads=9 / sliced_threads=0 / nr=0 / decimate=1 / interlaced=0 / bluray_compat=0 / constrained_intra=0 / bframes=10 / b_pyramid=2 / b_adapt=2 / b_bias=0 / direct=3 / weightb=1 / open_gop=0 / weightp=2 / keyint=240 / keyint_min=23 / scenecut=40 / intra_refresh=0 / rc_lookahead=80 / rc=2pass / mbtree=1 / bitrate=2259 / ratetol=1.0 / qcomp=0.60 / qpmin=0 / qpmax=69 / qpstep=4 / cplxblur=20.0 / qblur=0.5 / ip_ratio=1.40 / aq=2:0.90
Язык : English
Default : Да
Forced : Нет
Аудио
Идентификатор : 2
Формат : AC-3
Формат/Информация : Audio Coding 3
Расширение режима : CM (complete main)
Параметр Endianness формата : Big
Идентификатор кодека : A_AC3
Продолжительность : 1 ч. 55 м.
Вид битрейта : Постоянный
Битрейт : 448 Кбит/сек
Каналы : 6 каналов
Расположение каналов : Front: L C R, Side: L R, LFE
Частота : 48,0 КГц
Битовая глубина : 16 бит
Метод сжатия : С потерями
Размер потока : 370 Мбайт (17%)
Язык : Russian
Default : Да
Forced : Нет
Меню
00:00:00.000 : en:00:00:00.000
00:10:43.268 : en:00:10:43.268
00:21:46.180 : en:00:21:46.180
00:30:56.772 : en:00:30:56.772
00:43:43.246 : en:00:43:43.246
00:51:54.945 : en:00:51:54.945
01:01:17.716 : en:01:01:17.716
01:08:24.350 : en:01:08:24.350
01:20:51.889 : en:01:20:51.889
01:29:58.143 : en:01:29:58.143
01:43:14.605 : en:01:43:14.605
01:50:27.663 : en:01:50:27.663
Источник
 
Показать сообщения:    

Текущее время: Сегодня 05:01

Часовой пояс: GMT



Вы не можете начинать темы
Вы не можете отвечать на сообщения
Вы не можете редактировать свои сообщения
Вы не можете удалять свои сообщения
Вы не можете голосовать в опросах
Вы не можете прикреплять файлы к сообщениям
Вы не можете скачивать файлы